<?xml version="1.0" standalone="no"?>
<!DOCTYPE svg PUBLIC "-//W3C//DTD SVG 1.1//EN" "http://www.w3.org/Graphics/SVG/1.1/DTD/svg11.dtd" >
<svg>
<metadata>
Created by FontForge 20090622 at Thu Feb 18 14:20:26 2016
 By deploy user
Copyright 2010 Google Inc. All Rights Reserved.
</metadata>
<defs>
<font id="NotoKufiArabic-Bold" horiz-adv-x="0" >
  <font-face 
    font-family="Noto Kufi Arabic"
    font-weight="700"
    font-stretch="normal"
    units-per-em="2048"
    panose-1="2 11 8 6 3 8 4 2 2 4"
    ascent="1638"
    descent="-410"
    bbox="-651 -1260 3592 2625"
    underline-thickness="102"
    underline-position="-103"
    unicode-range="U+000D-U+FEFF"
  />
<missing-glyph horiz-adv-x="1229" 
d="M102 -362v1806h1024v-1806h-1024zM217 -248h795v1577h-795v-1577z" />
    <glyph glyph-name="uni06440627.isol" unicode="&#xfedf;&#xfe8e;" horiz-adv-x="1462" arabic-form="isolated" 
d="M92 246h371l-264 1034h319l244 -1034h14q102 0 149.5 56.5t47.5 180.5v1073h305v-1097q0 -209 -115.5 -334t-318.5 -125h-752v246z" />
    <glyph glyph-name="uni06440627.fina" unicode="&#xfee0;&#xfe8e;" horiz-adv-x="1534" arabic-form="final" 
d="M1544 246q10 0 10 -8v-228q0 -10 -10 -10h-1452v246h371l-264 1034h319l244 -1034h211v1310h305v-1310h266z" />
    <glyph glyph-name="uni06440623.isol" unicode="&#xfedf;&#xfe84;" horiz-adv-x="1462" arabic-form="isolated" 
d="M92 246h371l-264 1034h319l244 -1034h14q102 0 149.5 56.5t47.5 180.5v1073h305v-1097q0 -209 -115.5 -334t-318.5 -125h-752v246zM112 1504l117 19q-40 20 -66 55.5t-26 83.5q0 88 61 137t164 49q101 0 168 -37l-41 -104q-52 26 -111 26q-44 0 -71 -26t-27 -72
q0 -32 18 -56t44 -36l36 6q104 16 166 21v-119q-73 -5 -241.5 -25t-190.5 -26v104z" />
    <glyph glyph-name="uni06440623.fina" unicode="&#xfee0;&#xfe84;" horiz-adv-x="1534" arabic-form="final" 
d="M1544 246q10 0 10 -8v-228q0 -10 -10 -10h-1452v246h371l-264 1034h319l244 -1034h211v1310h305v-1310h266zM112 1504l117 19q-40 20 -66 55.5t-26 83.5q0 88 61 137t164 49q101 0 168 -37l-41 -104q-52 26 -111 26q-44 0 -71 -26t-27 -72q0 -32 18 -56t44 -36l36 6
q104 16 166 21v-119q-73 -5 -241.5 -25t-190.5 -26v104z" />
    <glyph glyph-name="uni06440625.isol" unicode="&#xfedf;&#xfe88;" horiz-adv-x="1462" arabic-form="isolated" 
d="M92 246h371l-264 1034h319l244 -1034h14q102 0 149.5 56.5t47.5 180.5v1073h305v-1097q0 -209 -115.5 -334t-318.5 -125h-752v246zM379 -500l117 19q-41 20 -67 55.5t-26 83.5q0 86 61 136t165 50q101 0 168 -37l-41 -104q-57 27 -111 27q-44 0 -71 -26.5t-27 -72.5
q0 -61 61 -92l37 6q100 16 166 21v-119q-73 -5 -241.5 -25t-190.5 -26v104z" />
    <glyph glyph-name="uni06440625.fina" unicode="&#xfee0;&#xfe88;" horiz-adv-x="1534" arabic-form="final" 
d="M1544 246q10 0 10 -8v-228q0 -10 -10 -10h-1452v246h371l-264 1034h319l244 -1034h211v1310h305v-1310h266zM379 -500l117 19q-41 20 -67 55.5t-26 83.5q0 86 61 136t165 50q101 0 168 -37l-41 -104q-57 27 -111 27q-44 0 -71 -26.5t-27 -72.5q0 -61 61 -92l37 6
q100 16 166 21v-119q-73 -5 -241.5 -25t-190.5 -26v104z" />
    <glyph glyph-name="uni06440622.isol" unicode="&#xfedf;&#xfe82;" horiz-adv-x="1462" arabic-form="isolated" 
d="M92 246h371l-264 1034h319l244 -1034h14q102 0 149.5 56.5t47.5 180.5v1073h305v-1097q0 -209 -115.5 -334t-318.5 -125h-752v246zM12 1386q13 129 69 196.5t142 67.5q42 0 82.5 -17.5t78.5 -39t72.5 -39t63.5 -17.5q45 0 68 26.5t39 88.5h104q-10 -123 -65 -193.5
t-146 -70.5q-40 0 -79.5 17.5t-77.5 38.5t-73.5 38.5t-66.5 17.5q-45 0 -68.5 -26.5t-37.5 -87.5h-105z" />
    <glyph glyph-name="uni06440622.fina" unicode="&#xfee0;&#xfe82;" horiz-adv-x="1534" arabic-form="final" 
d="M1544 246q10 0 10 -8v-228q0 -10 -10 -10h-1452v246h371l-264 1034h319l244 -1034h211v1310h305v-1310h266zM12 1386q13 129 69 196.5t142 67.5q42 0 82.5 -17.5t78.5 -39t72.5 -39t63.5 -17.5q45 0 68 26.5t39 88.5h104q-10 -123 -65 -193.5t-146 -70.5
q-40 0 -79.5 17.5t-77.5 38.5t-73.5 38.5t-66.5 17.5q-45 0 -68.5 -26.5t-37.5 -87.5h-105z" />
    <glyph glyph-name="uni06440671.isol" unicode="&#xfedf;&#xfb51;" horiz-adv-x="1462" 
d="M92 246h371l-264 1034h319l244 -1034h14q102 0 149.5 56.5t47.5 180.5v1073h305v-1097q0 -209 -115.5 -334t-318.5 -125h-752v246zM96 1552h94q72 209 229 209q83 0 129.5 -55.5t46.5 -153.5v-115h-499v115zM491 1552q0 51 -19.5 71.5t-56.5 20.5q-38 0 -68 -26t-44 -66
h188z" />
    <glyph glyph-name="uni06440671.fina" unicode="&#xfee0;&#xfb51;" horiz-adv-x="1534" 
d="M1544 246q10 0 10 -8v-228q0 -10 -10 -10h-1452v246h371l-264 1034h319l244 -1034h211v1310h305v-1310h266zM96 1552h94q72 209 229 209q83 0 129.5 -55.5t46.5 -153.5v-115h-499v115zM491 1552q0 51 -19.5 71.5t-56.5 20.5q-38 0 -68 -26t-44 -66h188z" />
    <glyph glyph-name="allah" unicode="&#x627;&#xfedf;&#xfee0;&#xfeea;" horiz-adv-x="3226" arabic-form="isolated" 
d="M731 0q-284 0 -441 132.5t-157 369.5q0 151 72 268t206.5 180.5t319.5 63.5h57v100h308v-868h342v1083h305v-1083h397v1083h305v-1329h-1714zM2716 1556h305v-1556h-305v1556zM791 246v522h-54q-140 0 -215.5 -69t-75.5 -199q0 -122 74 -188t213 -66h58zM1378 1436
q-85 0 -131.5 52.5t-46.5 145.5v129h127v-96q0 -56 15 -84.5t57 -28.5q41 0 60.5 21t19.5 74v166h116v-125q0 -45 16 -70t62 -25q42 0 58 22t16 91v137h127v-170q0 -94 -48.5 -146t-137.5 -52q-94 0 -144 61q-51 -102 -166 -102zM1479 2294h116v-316h-116v316z" />
    <glyph glyph-name="riyal" unicode="&#x631;&#xfef3;&#xfe8e;&#x644;" horiz-adv-x="3766" arabic-form="isolated" 
d="M690 -492q-171 0 -297.5 72t-193 202.5t-66.5 299.5q0 116 28 236.5t77 216.5h270q-32 -110 -51 -230.5t-19 -224.5q0 -149 75 -237.5t198 -88.5h61q158 0 232.5 85.5t74.5 240.5v1476h305v-1484q0 -564 -604 -564h-90zM1733 1556h305v-1310h502v768h305v-1014h-1112
v1556zM3164 -492q-105 0 -191.5 24.5t-185.5 90.5l123 199q54 -34 95.5 -47t99.5 -13q82 0 132 62.5t50 157.5v1032h305v-1047q0 -211 -116.5 -335t-311.5 -124zM2179 -512q-61 0 -99 38t-38 109q0 72 36.5 110t100.5 38q63 0 99 -39t36 -109t-37 -108.5t-98 -38.5z
M2527 -512q-61 0 -99 38t-38 109q0 72 36.5 110t100.5 38q63 0 99 -39t36 -109t-37 -108.5t-98 -38.5z" />
    <glyph glyph-name="uni0621" unicode="&#x621;" horiz-adv-x="1077" arabic-form="isolated" 
d="M133 178q111 29 195 41q-66 39 -105 112t-39 161q0 179 128 285t345 106q90 0 166.5 -16.5t122.5 -43.5l-61 -229q-77 43 -195 43q-94 0 -151.5 -46.5t-57.5 -146.5q0 -60 32.5 -108t84.5 -70q66 11 192 26t195 19v-248q-143 0 -420 -34t-432 -64v213z" />
    <glyph glyph-name="uni0627" unicode="&#x627;" horiz-adv-x="715" arabic-form="isolated" 
d="M205 1556h305v-1556h-305v1556z" />
    <glyph glyph-name="uni0627.fina" unicode="&#x627;" horiz-adv-x="756" arabic-form="final" 
d="M766 246q10 0 10 -8v-228q0 -10 -10 -10h-561v1556h305v-1310h256z" />
    <glyph glyph-name="uni062D" unicode="&#x62d;" horiz-adv-x="1399" arabic-form="isolated" 
d="M559 -668q-210 0 -338.5 116.5t-128.5 309.5q0 109 43.5 199.5t127 164t217.5 137t358 124.5q-32 97 -50 166q-31 121 -97.5 180t-176.5 59q-134 0 -305 -94l-109 226q99 52 228 83t250 31q407 0 475 -395q35 -193 81.5 -283.5t131.5 -154.5l-156 -201q-100 79 -166 172
q-247 -63 -347 -113.5t-153 -119t-53 -164.5q0 -86 64.5 -139.5t165.5 -53.5q137 0 301 43l34 -223q-199 -70 -397 -70z" />
    <glyph glyph-name="uni062D.init" unicode="&#x62d;" horiz-adv-x="1255" arabic-form="initial" 
d="M-10 0q-10 0 -10 10v228q0 8 10 8h825v2q-80 72 -123 291q-28 138 -82.5 193.5t-163.5 55.5q-72 0 -135 -18t-137 -59l-92 225q183 98 428 98q205 0 319 -92t150 -303q53 -305 143 -393v-246h-1132z" />
    <glyph glyph-name="uni062D.medi" unicode="&#x62d;" horiz-adv-x="1245" arabic-form="medial" 
d="M-10 0q-10 0 -10 10v228q0 8 10 8h827q-81 76 -125 293q-28 138 -82.5 193.5t-163.5 55.5q-72 0 -135 -18t-137 -59l-92 225q183 98 428 98q205 0 319 -92t150 -303q53 -305 143 -393h133q11 0 11 -8v-228q0 -10 -11 -10h-1265z" />
    <glyph glyph-name="uni062D.fina" unicode="&#x62d;" horiz-adv-x="1321" arabic-form="final" 
d="M1319 0q-142 0 -228.5 42t-146.5 130q-247 -63 -347 -113.5t-153 -119t-53 -164.5q0 -86 64.5 -139.5t165.5 -53.5q137 0 301 43l34 -223q-199 -70 -397 -70q-210 0 -338.5 116.5t-128.5 309.5q0 109 44 200.5t128 165t216.5 135.5t359.5 124q-29 81 -52 166
q-33 122 -98.5 180.5t-175.5 58.5q-134 0 -305 -94l-109 226q99 52 228 83t250 31q407 0 475 -395q33 -184 104 -288.5t162 -104.5h12q10 0 10 -8v-228q0 -10 -10 -10h-12z" />
    <glyph glyph-name="uni062F" unicode="&#x62f;" horiz-adv-x="1219" arabic-form="isolated" 
d="M92 246h684q-42 189 -102.5 305.5t-154 201t-228.5 140.5l115 287q274 -110 439.5 -339.5t239.5 -602.5v-238h-993v246z" />
    <glyph glyph-name="uni0631" unicode="&#x631;" horiz-adv-x="897" arabic-form="isolated" 
d="M295 -492q-105 0 -192.5 25t-184.5 90l123 199q54 -34 95.5 -47t99.5 -13q82 0 132 62.5t50 157.5v1032h305v-1047q0 -211 -116.5 -335t-311.5 -124z" />
    <glyph glyph-name="uni0631.fina" unicode="&#x631;" horiz-adv-x="979" arabic-form="final" 
d="M989 246q10 0 10 -8v-228q0 -10 -10 -10h-266v-33q0 -211 -116.5 -335t-311.5 -124q-105 0 -192.5 25t-184.5 90l123 199q54 -34 95.5 -47t99.5 -13q82 0 132 62.5t50 157.5v1032h305v-768h266z" />
    <glyph glyph-name="uni0633" unicode="&#x633;" horiz-adv-x="2890" arabic-form="isolated" 
d="M1559 246q102 0 149 57t47 180v371h305v-395q0 -50 -6 -92q51 -68 101.5 -94.5t128.5 -26.5h126v768h306v-1014h-426q-174 0 -322 154q-115 -154 -342 -154h-244q-37 -492 -602 -492h-90q-171 0 -297.5 72t-193 202.5t-66.5 299.5q0 116 28 236.5t77 216.5h270
q-32 -110 -51 -230.5t-19 -224.5q0 -149 75 -237.5t198 -88.5h61q158 0 232.5 85.5t74.5 240.5v774h305v-608h175z" />
    <glyph glyph-name="uni0633.init" unicode="&#x633;" horiz-adv-x="2056" arabic-form="initial" 
d="M-10 0q-10 0 -10 10v228q0 8 10 8h256v608h305v-608h174q102 0 149.5 56.5t47.5 180.5v371h305v-395q0 -50 -6 -92q50 -67 100 -94t129 -27h127v768h305v-1014h-426q-173 0 -321 154q-115 -154 -342 -154h-803z" />
    <glyph glyph-name="uni0633.medi" unicode="&#x633;" horiz-adv-x="2138" arabic-form="medial" 
d="M2148 246q11 0 11 -8v-228q0 -10 -11 -10h-692q-173 0 -321 154q-115 -154 -342 -154h-803q-10 0 -10 10v228q0 8 10 8h256v608h305v-608h174q102 0 149.5 56.5t47.5 180.5v371h305v-395q0 -50 -6 -92q50 -67 100 -94t129 -27h127v768h305v-768h266z" />
    <glyph glyph-name="uni0633.fina" unicode="&#x633;" horiz-adv-x="2972" arabic-form="final" 
d="M2982 246q10 0 10 -8v-228q0 -10 -10 -10h-692q-174 0 -322 154q-115 -154 -342 -154h-244q-37 -492 -602 -492h-90q-171 0 -297.5 72t-193 202.5t-66.5 299.5q0 116 28 236.5t77 216.5h270q-32 -110 -51 -230.5t-19 -224.5q0 -149 75 -237.5t198 -88.5h61
q158 0 232.5 85.5t74.5 240.5v774h305v-608h175q102 0 149 57t47 180v371h305v-395q0 -50 -6 -92q51 -68 101.5 -94.5t128.5 -26.5h126v768h306v-768h266z" />
    <glyph glyph-name="uni0635" unicode="&#x635;" horiz-adv-x="2601" arabic-form="isolated" 
d="M690 -492q-171 0 -297.5 72t-193 202.5t-66.5 299.5q0 116 28 236.5t77 216.5h270q-32 -110 -51 -230.5t-19 -224.5q0 -149 75 -237.5t198 -88.5h61q158 0 232.5 85.5t74.5 240.5v934h305v-359q187 379 555 379q252 0 380 -132.5t128 -409.5v-492h-1065
q-15 -242 -168 -367t-434 -125h-90zM2142 246v252q0 149 -68.5 219.5t-211.5 70.5q-277 0 -478 -382v-160h758z" />
    <glyph glyph-name="uni0635.init" unicode="&#x635;" horiz-adv-x="1753" arabic-form="initial" 
d="M1294 246v252q0 149 -68.5 219.5t-211.5 70.5q-276 0 -477 -382v-160h757zM-10 0q-10 0 -10 10v228q0 8 10 8h241v768h306v-359q187 379 555 379q251 0 379 -132.5t128 -409.5v-492h-1609z" />
    <glyph glyph-name="uni0635.medi" unicode="&#x635;" horiz-adv-x="1855" arabic-form="medial" 
d="M-10 0q-10 0 -10 10v228q0 8 10 8h241v768h306v-359q187 379 555 379q251 0 379 -132.5t128 -409.5v-246h267q10 0 10 -8v-228q0 -10 -10 -10h-1876zM1294 246v252q0 149 -68.5 219.5t-211.5 70.5q-276 0 -477 -382v-160h757z" />
    <glyph glyph-name="uni0635.fina" unicode="&#x635;" horiz-adv-x="2703" arabic-form="final" 
d="M2714 246q10 0 10 -8v-228q0 -10 -10 -10h-1332q-15 -242 -168 -367t-434 -125h-90q-171 0 -297.5 72t-193 202.5t-66.5 299.5q0 116 28 236.5t77 216.5h270q-32 -110 -51 -230.5t-19 -224.5q0 -149 75 -237.5t198 -88.5h61q158 0 232.5 85.5t74.5 240.5v934h305v-359
q187 379 555 379q252 0 380 -132.5t128 -409.5v-246h267zM2142 246v252q0 149 -68.5 219.5t-211.5 70.5q-277 0 -478 -382v-160h758z" />
    <glyph glyph-name="uni0637" unicode="&#x637;" horiz-adv-x="1753" arabic-form="isolated" 
d="M1294 246v252q0 149 -68.5 219.5t-211.5 70.5q-276 0 -477 -382v-160h757zM41 246h190v1310h306v-901q187 379 555 379q251 0 379 -132.5t128 -409.5v-492h-1558v246z" />
    <glyph glyph-name="uni0637.init" unicode="&#x637;" horiz-adv-x="1815" arabic-form="initial" 
d="M1356 246v252q0 149 -68.5 219.5t-212.5 70.5q-276 0 -477 -382v-160h758zM-10 0q-10 0 -10 10v228q0 8 10 8h303v1310h305v-901q187 379 555 379q252 0 380 -132.5t128 -409.5v-492h-1671z" />
    <glyph glyph-name="uni0637.medi" unicode="&#x637;" horiz-adv-x="1855" arabic-form="medial" 
d="M-10 0q-10 0 -10 10v228q0 8 10 8h241v1310h306v-901q187 379 555 379q251 0 379 -132.5t128 -409.5v-246h267q10 0 10 -8v-228q0 -10 -10 -10h-1876zM1294 246v252q0 149 -68.5 219.5t-211.5 70.5q-276 0 -477 -382v-160h757z" />
    <glyph glyph-name="uni0637.fina" unicode="&#x637;" horiz-adv-x="1855" arabic-form="final" 
d="M41 246h190v1310h306v-901q187 379 555 379q251 0 379 -132.5t128 -409.5v-246h267q10 0 10 -8v-228q0 -10 -10 -10h-1825v246zM1294 246v252q0 149 -68.5 219.5t-211.5 70.5q-276 0 -477 -382v-160h757z" />
    <glyph glyph-name="uni0639" unicode="&#x639;" horiz-adv-x="1214" arabic-form="isolated" 
d="M600 -668q-210 0 -338.5 114.5t-128.5 301.5q0 229 260 408q-72 72 -126 182t-54 203q0 230 151.5 361.5t413.5 131.5q90 0 188.5 -20t155.5 -47l-86 -240q-81 35 -142.5 48t-123.5 13q-128 0 -196 -67.5t-68 -192.5q0 -86 21 -146.5t63 -117.5q177 79 356 135l72 -231
q-314 -79 -450 -177t-136 -227q0 -85 58.5 -133.5t171.5 -48.5q137 0 301 43l34 -223q-199 -70 -397 -70z" />
    <glyph glyph-name="uni0639.init" unicode="&#x639;" horiz-adv-x="1161" arabic-form="initial" 
d="M-10 0q-10 0 -10 10v228q0 8 10 8h315q-76 34 -121 115t-45 180q0 230 151.5 361.5t414.5 131.5q90 0 188.5 -20t155.5 -47l-86 -240q-79 34 -141 47.5t-126 13.5q-126 0 -195 -67t-69 -193q0 -124 71 -203t191 -79h375v-246h-1079z" />
    <glyph glyph-name="uni0639.medi" unicode="&#x639;" horiz-adv-x="1237" arabic-form="medial" 
d="M1247 246q10 0 10 -8v-228q0 -10 -10 -10h-260q-96 0 -200 32.5t-179 82.5q-188 -115 -381 -115h-237q-10 0 -10 10v228q0 8 10 8h205q46 0 101.5 11t90.5 28q-61 47 -129 148t-118 221t-68 231q120 100 275.5 157.5t299.5 57.5q293 0 514 -123q0 -222 -90 -407
t-244 -283q76 -41 185 -41h235zM612 412q240 143 258 405q-89 37 -231 37q-66 0 -142 -23t-120 -55q30 -113 92.5 -212t142.5 -152z" />
    <glyph glyph-name="uni0639.fina" unicode="&#x639;" horiz-adv-x="1298" arabic-form="final" 
d="M141 -252q0 135 81.5 259.5t252.5 248.5q-131 123 -223.5 292.5t-118.5 336.5q119 99 276 157t300 58q291 0 514 -123q0 -212 -86 -392t-250 -315q82 -24 186 -24h236q10 0 10 -8v-228q0 -10 -10 -10h-260q-82 0 -184 31t-193 84q-123 -92 -177.5 -175.5t-54.5 -175.5
q0 -85 58.5 -133.5t171.5 -48.5q137 0 301 43l35 -223q-111 -38 -205 -54t-193 -16q-210 0 -338.5 114.5t-128.5 301.5zM438 776q65 -221 242 -385q107 77 174.5 189.5t77.5 236.5q-52 21 -105.5 29t-126.5 8q-66 0 -143 -24t-119 -54z" />
    <glyph glyph-name="uni0643.init" unicode="&#x643;" horiz-adv-x="1249" arabic-form="initial" 
d="M-10 0q-10 0 -10 10v228q0 8 10 8h801v329q0 124 -85 190t-241 66h-348v222q108 229 305.5 403.5t458.5 267.5l112 -274q-178 -54 -333 -159t-226 -214h78q584 0 584 -463v-614h-1106z" />
    <glyph glyph-name="uni0643.medi" unicode="&#x643;" horiz-adv-x="1352" arabic-form="medial" 
d="M-10 0q-10 0 -10 10v228q0 8 10 8h801v329q0 124 -85 190t-241 66h-348v222q108 229 305.5 403.5t458.5 267.5l112 -274q-178 -54 -333 -159t-226 -214h78q584 0 584 -463v-368h266q10 0 10 -8v-228q0 -10 -10 -10h-1372z" />
    <glyph glyph-name="uni0643" unicode="&#x643;" horiz-adv-x="1806" arabic-form="isolated" 
d="M662 739l116 19q-40 20 -66 55.5t-26 83.5q0 86 60.5 136t164.5 50q98 0 168 -36l-41 -105q-54 27 -110 27q-45 0 -72 -27.5t-27 -71.5q0 -61 62 -92l36 6q103 16 167 21v-119q-133 -8 -432 -51v104zM541 0q-189 0 -298.5 110t-109.5 302q0 77 18 164.5t48 148.5h270
q-31 -133 -31 -268q0 -95 53 -153t140 -58h665v1310h306v-1556h-1061z" />
    <glyph glyph-name="uni0643.fina" unicode="&#x643;" horiz-adv-x="1858" arabic-form="final" 
d="M541 0q-189 0 -298.5 110t-109.5 302q0 77 18 164.5t48 148.5h270q-31 -133 -31 -268q0 -95 53 -153t140 -58h665v1310h306v-1310h266q10 0 10 -8v-228q0 -10 -10 -10h-1327zM662 739l116 19q-40 20 -66 55.5t-26 83.5q0 86 60.5 136t164.5 50q98 0 168 -36l-41 -105
q-54 27 -110 27q-45 0 -72 -27.5t-27 -71.5q0 -61 62 -92l36 6q103 16 167 21v-119q-133 -8 -432 -51v104z" />
    <glyph glyph-name="uni0644" unicode="&#x644;" horiz-adv-x="1589" arabic-form="isolated" 
d="M690 -492q-171 0 -297.5 72t-193 202.5t-66.5 299.5q0 116 28 236.5t77 216.5h270q-32 -110 -51 -230.5t-19 -224.5q0 -149 75 -237.5t198 -88.5h61q158 0 232.5 85.5t74.5 240.5v1476h305v-1484q0 -564 -604 -564h-90z" />
    <glyph glyph-name="uni0644.init" unicode="&#x644;" horiz-adv-x="756" arabic-form="initial" 
d="M-10 0q-10 0 -10 10v228q0 8 10 8h256v1310h305v-1556h-561z" />
    <glyph glyph-name="uni0644.medi" unicode="&#x644;" horiz-adv-x="807" arabic-form="medial" 
d="M-10 0q-10 0 -10 10v228q0 8 10 8h256v1310h305v-1310h266q10 0 10 -8v-228q0 -10 -10 -10h-827z" />
    <glyph glyph-name="uni0644.fina" unicode="&#x644;" horiz-adv-x="1640" arabic-form="final" 
d="M690 -492q-171 0 -297.5 72t-193 202.5t-66.5 299.5q0 116 28 236.5t77 216.5h270q-32 -110 -51 -230.5t-19 -224.5q0 -149 75 -237.5t198 -88.5h61q158 0 232.5 85.5t74.5 240.5v1476h305v-1310h267q10 0 10 -8v-228q0 -10 -10 -10h-269q-37 -492 -602 -492h-90z" />
    <glyph glyph-name="uni0645" unicode="&#x645;" horiz-adv-x="1464" arabic-form="isolated" 
d="M133 -57q0 134 70 213t198 88q-55 130 -55 284q0 90 31 195t74 174q92 54 204 85.5t201 31.5q140 0 254 -59.5t178 -170t64 -254.5q0 -156 -72.5 -276t-201.5 -187t-285 -67h-189q-92 0 -129 -36.5t-37 -121.5v-497h-305v598zM629 485q0 -104 47 -239h78q123 0 206.5 83
t83.5 201q0 112 -53.5 175t-140.5 63q-92 0 -191 -57q-30 -108 -30 -226z" />
    <glyph glyph-name="uni0645.init" unicode="&#x645;" horiz-adv-x="1284" arabic-form="initial" 
d="M221 246q-55 126 -55 282q0 89 30 192t74 177q99 57 210.5 87t195.5 30q140 0 254.5 -60t177.5 -169.5t63 -254.5q0 -156 -72.5 -276t-201.5 -187t-285 -67h-622q-10 0 -10 10v228q0 8 10 8h231zM449 485q0 -104 47 -239h77q124 0 207.5 83t83.5 201q0 109 -53 173.5
t-141 64.5q-92 0 -191 -57q-30 -108 -30 -226z" />
    <glyph glyph-name="uni0645.medi" unicode="&#x645;" horiz-adv-x="1337" arabic-form="medial" 
d="M221 246q-55 126 -55 282q0 89 30 192t74 177q99 57 210.5 87t195.5 30q140 0 254.5 -60t177.5 -169.5t63 -254.5q0 -112 -38 -211q37 -40 84.5 -56.5t119.5 -16.5h11q10 0 10 -8v-228q0 -10 -10 -10h-11q-108 0 -187.5 30.5t-150.5 106.5q-78 -68 -179 -102.5
t-208 -34.5h-622q-10 0 -10 10v228q0 8 10 8h231zM449 485q0 -104 47 -239h77q124 0 207.5 83t83.5 201q0 109 -53 173.5t-141 64.5q-92 0 -191 -57q-30 -108 -30 -226z" />
    <glyph glyph-name="uni0645.fina" unicode="&#x645;" horiz-adv-x="1520" arabic-form="final" 
d="M1520 0q-109 0 -187.5 31t-150.5 106q-79 -68 -180 -102.5t-209 -34.5h-189q-92 0 -129 -36.5t-37 -121.5v-497h-305v598q0 134 70 213t198 88q-55 130 -55 284q0 90 31 195t74 174q92 54 204 85.5t201 31.5q140 0 254 -59.5t178 -170t64 -254.5q0 -108 -39 -208
q37 -42 85 -59t122 -17h10q10 0 10 -8v-228q0 -10 -10 -10h-10zM629 485q0 -104 47 -239h78q123 0 206.5 83t83.5 201q0 112 -53.5 175t-140.5 63q-92 0 -191 -57q-30 -108 -30 -226z" />
    <glyph glyph-name="uni0647" unicode="&#x647;" horiz-adv-x="1292" arabic-form="isolated" 
d="M643 -20q-250 0 -380 119t-130 352q0 159 65.5 294.5t182.5 212t268 76.5q139 0 253 -74t185.5 -212.5t71.5 -296.5q0 -243 -130 -357t-386 -114zM641 229q108 0 159.5 57.5t51.5 174.5q0 132 -62.5 229.5t-150.5 97.5t-149.5 -95t-61.5 -232q0 -118 52.5 -175t160.5 -57
z" />
    <glyph glyph-name="uni0647.init" unicode="&#x647;" horiz-adv-x="1819" arabic-form="initial" 
d="M770 246v278q0 106 -37.5 154.5t-118.5 48.5q-70 0 -113.5 -58.5t-43.5 -148.5q0 -274 248 -274h65zM-10 0q-10 0 -10 10v228q0 8 10 8h252q-42 38 -70.5 109t-28.5 177q0 120 64 225.5t172.5 165.5t232.5 60q139 0 244.5 -57.5t162 -160.5t56.5 -228v-291h285v379
q0 260 -128 399t-374 139q-153 0 -269.5 -18.5t-228.5 -59.5l-69 234q141 49 277 69.5t290 20.5q404 0 605.5 -194.5t201.5 -563.5v-651h-1675z" />
    <glyph glyph-name="uni0647.medi" unicode="&#x647;" horiz-adv-x="1911" arabic-form="medial" 
d="M1921 246q10 0 10 -8v-228q0 -10 -10 -10h-1931q-10 0 -10 10v228q0 8 10 8h252q-42 38 -70.5 109t-28.5 177q0 120 64 225.5t172.5 165.5t232.5 60q139 0 244.5 -57.5t162 -160.5t56.5 -228v-291h285v379q0 260 -128 399t-374 139q-153 0 -269.5 -18.5t-228.5 -59.5
l-69 234q141 49 277 69.5t290 20.5q404 0 605.5 -194.5t201.5 -563.5v-405h256zM770 246v278q0 106 -37.5 154.5t-118.5 48.5q-70 0 -113.5 -58.5t-43.5 -148.5q0 -274 248 -274h65z" />
    <glyph glyph-name="uni0647.fina" unicode="&#x647;" horiz-adv-x="1341" arabic-form="final" 
d="M1352 246q10 0 10 -8v-228q0 -10 -10 -10h-621q-284 0 -441 132.5t-157 369.5q0 151 72 268t206.5 180.5t319.5 63.5h57v100h308v-868h256zM791 246v522h-54q-140 0 -215.5 -69t-75.5 -199q0 -122 74 -188t213 -66h58z" />
    <glyph glyph-name="uni0648" unicode="&#x648;" horiz-adv-x="1284" arabic-form="isolated" 
d="M569 -492q-139 0 -240.5 21.5t-195.5 77.5l119 223q83 -43 157 -60.5t154 -17.5q116 0 179 63.5t63 174.5v10h-203q-219 0 -337 124t-118 353q0 162 81 284.5t229 187.5t342 65h311v-1020q0 -233 -141.5 -359.5t-399.5 -126.5zM805 246v522h-66q-131 0 -204.5 -74
t-73.5 -209q0 -123 50 -181t153 -58h141z" />
    <glyph glyph-name="uni0648.fina" unicode="&#x648;" horiz-adv-x="1356" arabic-form="final" 
d="M1366 246q10 0 10 -8v-228q0 -10 -10 -10h-256q0 -234 -141.5 -363t-399.5 -129q-139 0 -240.5 21.5t-195.5 77.5l119 223q83 -43 157 -60.5t154 -17.5q116 0 179 63.5t63 174.5v10h-203q-219 0 -337 124t-118 353q0 162 81 284.5t229 187.5t342 65h311v-768h256z
M805 246v522h-66q-131 0 -204.5 -74t-73.5 -209q0 -123 50 -181t153 -58h141z" />
    <glyph glyph-name="uni0649" unicode="&#x649;" horiz-adv-x="1808" arabic-form="isolated" 
d="M545 -492q-117 0 -212 59.5t-147.5 166.5t-52.5 241q0 200 66 396h272q-26 -85 -34.5 -161t-8.5 -190q0 -70 34.5 -132.5t91.5 -98t118 -35.5h354q159 0 232 29t73 94q0 42 -27.5 75.5t-92.5 73.5l-197.5 129.5t-154 133.5t-42.5 127q0 120 108.5 273.5t260.5 248
t291 94.5q48 0 97.5 -18.5t141.5 -77.5l-110 -223q-41 23 -80 39t-82 16q-54 0 -142.5 -57t-146 -125t-57.5 -119q0 -32 46.5 -75.5t135.5 -99.5q83 -52 175 -128t136.5 -145.5t44.5 -135.5q0 -188 -156.5 -281.5t-451.5 -93.5h-483z" />
    <glyph glyph-name="uni0649.fina" unicode="&#x649;" horiz-adv-x="2058" arabic-form="final" 
d="M2058 0q-110 0 -187.5 31t-160.5 119q-22 23 -104 138q-97 135 -152 180.5t-104 45.5q-33 0 -83 -34t-84 -79t-34 -77q0 -42 35.5 -73t112.5 -57q131 -44 193.5 -84t94 -97t31.5 -134q0 -181 -146.5 -276t-441.5 -95h-483q-117 0 -212 59.5t-147.5 166.5t-52.5 241
q0 200 66 396h272q-26 -85 -34.5 -161t-8.5 -190q0 -70 34.5 -132.5t91.5 -98t118 -35.5h354q166 0 226.5 25t60.5 84q0 35 -33.5 59.5t-107.5 44.5q-172 44 -239 117t-67 197q0 107 77.5 224.5t200.5 198t236 80.5q66 0 122 -25.5t108.5 -77t171.5 -221.5
q94 -135 151.5 -174.5t124.5 -39.5h10q11 0 11 -8v-228q0 -10 -11 -10h-10z" />
    <glyph glyph-name="uni066E.init" unicode="&#x66e;" horiz-adv-x="725" 
d="M-10 0q-10 0 -10 10v228q0 8 10 8h256v768h305v-1014h-561z" />
    <glyph glyph-name="uni066E.medi" unicode="&#x66e;" horiz-adv-x="807" 
d="M817 246q10 0 10 -8v-228q0 -10 -10 -10h-827q-10 0 -10 10v228q0 8 10 8h256v768h305v-768h266z" />
    <glyph glyph-name="uni066E.fina" unicode="&#x66e;" horiz-adv-x="1858" 
d="M541 0q-189 0 -298.5 110t-109.5 302q0 77 18 164.5t48 148.5h270q-31 -133 -31 -268q0 -95 53 -153t140 -58h665v768h306v-768h266q10 0 10 -8v-228q0 -10 -10 -10h-1327z" />
    <glyph glyph-name="uni066F.init" unicode="&#x66f;" horiz-adv-x="1321" 
d="M842 246v522h-54q-138 0 -214 -68.5t-76 -199.5q0 -122 73.5 -188t212.5 -66h58zM283 246q-99 117 -99 270q0 229 158 363.5t440 134.5h365v-1014h-1157q-10 0 -10 10v228q0 8 10 8h293z" />
    <glyph glyph-name="uni066F.medi" unicode="&#x66f;" horiz-adv-x="1393" 
d="M1403 246q10 0 10 -8v-228q0 -10 -10 -10h-1413q-10 0 -10 10v228q0 8 10 8h293q-99 117 -99 270q0 229 158 363.5t440 134.5h365v-768h256zM842 246v522h-54q-138 0 -214 -68.5t-76 -199.5q0 -122 73.5 -188t212.5 -66h58z" />
    <glyph glyph-name="uni066F.fina" unicode="&#x66f;" horiz-adv-x="2042" 
d="M2052 246q10 0 10 -8v-228q0 -10 -10 -10h-258q-13 -252 -153 -372t-424 -120h-541q-154 0 -278.5 74t-194.5 206.5t-70 293.5q0 116 28 236.5t77 216.5h270q-32 -110 -51 -230.5t-19 -224.5q0 -154 84.5 -240t245.5 -86h346q198 0 287.5 56.5t89.5 179.5v10h-145h-12
q-147 0 -260.5 62t-176.5 177t-63 269t69.5 268t204.5 176t326 62h362v-768h256zM1491 246v522h-53q-291 0 -291 -272q0 -125 76 -187.5t211 -62.5h57z" />
    <glyph glyph-name="uni06C1.init" unicode="&#x6c1;" horiz-adv-x="737" arabic-form="initial" 
d="M348 -457q-99 0 -159 56.5t-60 150.5q0 119 111 250h-250q-10 0 -10 10v228q0 8 10 8h256v768h305v-1014h-105q-94 -117 -94 -188q0 -29 18.5 -48.5t53.5 -19.5h139v-201h-215z" />
    <glyph glyph-name="uni06C1.medi" unicode="&#x6c1;" horiz-adv-x="1294" arabic-form="medial" 
d="M1305 246q10 0 10 -8v-228q0 -10 -10 -10h-252v-457h-336q-422 0 -563 457h-164q-10 0 -10 10v228q0 8 10 8h377q53 -193 101 -284.5t112.5 -132t167.5 -40.5v457h557z" />
    <glyph glyph-name="uni06BE" unicode="&#x6be;" horiz-adv-x="1890" arabic-form="isolated" 
d="M842 246v278q0 106 -37.5 154.5t-118.5 48.5q-69 0 -113.5 -58t-44.5 -149q0 -274 248 -274h66zM133 246h180q-42 38 -70 109t-28 177q0 120 64 225.5t172.5 165.5t232.5 60q139 0 244 -58t162 -159.5t57 -228.5v-291h285v379q0 261 -129 399.5t-373 138.5
q-153 0 -270.5 -18.5t-227.5 -59.5l-70 234q141 49 277 69.5t291 20.5q403 0 605 -194.5t202 -563.5v-651h-1604v246z" />
    <glyph glyph-name="uni06D2" unicode="&#x6d2;" horiz-adv-x="1182" arabic-form="isolated" 
d="M524 -492q-206 0 -319 86t-113 242q0 90 37.5 156.5t116 121t258.5 128.5q153 63 209.5 102t79 88t22.5 137v76h305v-82q0 -133 -35 -217.5t-113 -146t-231 -119.5q-172 -67 -233 -99t-86 -62.5t-25 -72.5q0 -92 123 -92h959v-246h-955z" />
    <glyph glyph-name="uni06D2.fina" unicode="&#x6d2;" horiz-adv-x="795" arabic-form="final" 
d="M887 246q10 0 10 -8v-228q0 -10 -10 -10h-269q-109 0 -165 -39.5t-56 -105.5q0 -45 33 -73t98 -28h897v-246h-970q-158 0 -260.5 95.5t-102.5 246.5q0 113 68 203.5t187 141.5t259 51h281z" />
    <glyph glyph-name="uni06A9" unicode="&#x6a9;" horiz-adv-x="1817" arabic-form="isolated" 
d="M541 0q-191 0 -299.5 110t-108.5 302q0 162 66 313h270q-31 -164 -31 -268q0 -98 52.5 -154.5t140.5 -56.5h727v329q0 124 -85 190t-241 66h-348v222q108 229 305.5 403.5t458.5 267.5l113 -274q-177 -53 -333.5 -158.5t-226.5 -214.5h78q584 0 584 -463v-614h-1122z" />
    <glyph glyph-name="uni06A9.fina" unicode="&#x6a9;" horiz-adv-x="1919" arabic-form="final" 
d="M541 0q-191 0 -299.5 110t-108.5 302q0 162 66 313h270q-31 -164 -31 -268q0 -98 52.5 -154.5t140.5 -56.5h727v329q0 124 -85 190t-241 66h-348v222q108 229 305.5 403.5t458.5 267.5l113 -274q-177 -53 -333.5 -158.5t-226.5 -214.5h78q584 0 584 -463v-368h266
q10 0 10 -8v-228q0 -10 -10 -10h-1388z" />
    <glyph glyph-name="uni06AF" unicode="&#x6af;" horiz-adv-x="1817" arabic-form="isolated" 
d="M541 0q-191 0 -299.5 110t-108.5 302q0 162 66 313h270q-31 -164 -31 -268q0 -98 52.5 -154.5t140.5 -56.5h727v329q0 124 -85 190t-241 66h-348v222q108 229 305.5 403.5t458.5 267.5l113 -274q-177 -53 -333.5 -158.5t-226.5 -214.5h78q584 0 584 -463v-614h-1122z
M610 1395q66 151 284.5 340t438.5 282l59 -157q-150 -57 -301.5 -160.5t-264 -222.5t-161.5 -224z" />
    <glyph glyph-name="uni06AF.init" unicode="&#x6af;" horiz-adv-x="1249" arabic-form="initial" 
d="M-10 0q-10 0 -10 10v228q0 8 10 8h801v329q0 124 -85 190t-241 66h-348v222q108 229 305.5 403.5t458.5 267.5l112 -274q-178 -54 -333 -159t-226 -214h78q584 0 584 -463v-614h-1106zM43 1395q66 151 284.5 340t438.5 282l59 -157q-150 -57 -301.5 -160.5t-264 -222.5
t-161.5 -224z" />
    <glyph glyph-name="uni06AF.medi" unicode="&#x6af;" horiz-adv-x="1352" arabic-form="medial" 
d="M-10 0q-10 0 -10 10v228q0 8 10 8h801v329q0 124 -85 190t-241 66h-348v222q108 229 305.5 403.5t458.5 267.5l112 -274q-178 -54 -333 -159t-226 -214h78q584 0 584 -463v-368h266q10 0 10 -8v-228q0 -10 -10 -10h-1372zM43 1395q66 151 284.5 340t438.5 282l59 -157
q-150 -57 -301.5 -160.5t-264 -222.5t-161.5 -224z" />
    <glyph glyph-name="uni06AF.fina" unicode="&#x6af;" horiz-adv-x="1919" arabic-form="final" 
d="M541 0q-191 0 -299.5 110t-108.5 302q0 162 66 313h270q-31 -164 -31 -268q0 -98 52.5 -154.5t140.5 -56.5h727v329q0 124 -85 190t-241 66h-348v222q108 229 305.5 403.5t458.5 267.5l113 -274q-177 -53 -333.5 -158.5t-226.5 -214.5h78q584 0 584 -463v-368h266
q10 0 10 -8v-228q0 -10 -10 -10h-1388zM610 1395q66 151 284.5 340t438.5 282l59 -157q-150 -57 -301.5 -160.5t-264 -222.5t-161.5 -224z" />
    <glyph glyph-name="uni06BA" unicode="&#x6ba;" horiz-adv-x="1559" arabic-form="isolated" 
d="M690 -492q-171 0 -297.5 72t-193 202.5t-66.5 299.5q0 116 28 236.5t77 216.5h270q-32 -110 -51 -230.5t-19 -224.5q0 -149 75 -237.5t198 -88.5h61q158 0 232.5 85.5t74.5 240.5v934h305v-942q0 -564 -604 -564h-90z" />
    <glyph glyph-name="uni06BA.fina" unicode="&#x6ba;" horiz-adv-x="1638" arabic-form="final" 
d="M1649 246q10 0 10 -8v-228q0 -10 -10 -10h-267q-37 -492 -602 -492h-90q-171 0 -297.5 72t-193 202.5t-66.5 299.5q0 116 28 236.5t77 216.5h270q-32 -110 -51 -230.5t-19 -224.5q0 -149 75 -237.5t198 -88.5h61q158 0 232.5 85.5t74.5 240.5v934h305v-768h265z" />
    <glyph glyph-name="uni062F.fina" unicode="&#x62f;" horiz-adv-x="1341" arabic-form="final" 
d="M92 246h684q-42 189 -102.5 305.5t-154 201t-228.5 140.5l115 287q270 -108 435 -334t242 -600h269q10 0 10 -8v-228q0 -10 -10 -10h-1260v246z" />
    <glyph glyph-name="uni06C1.fina" unicode="&#x6c1;" horiz-adv-x="1628" arabic-form="final" 
d="M1638 246q11 0 11 -8v-228q0 -10 -11 -10h-561v743q-116 -43 -212 -125.5t-189 -215.5t-232 -402h-342q160 297 231.5 406.5t146.5 197t162 159.5t192 130t233 100h315v-747h256z" />
    <glyph glyph-name="uni0686" unicode="&#x686;" horiz-adv-x="1399" arabic-form="isolated" 
d="M559 -668q-210 0 -338.5 116.5t-128.5 309.5q0 109 43.5 199.5t127 164t217.5 137t358 124.5q-32 97 -50 166q-31 121 -97.5 180t-176.5 59q-134 0 -305 -94l-109 226q99 52 228 83t250 31q407 0 475 -395q35 -193 81.5 -283.5t131.5 -154.5l-156 -201q-100 79 -166 172
q-247 -63 -347 -113.5t-153 -119t-53 -164.5q0 -86 64.5 -139.5t165.5 -53.5zM909 -633q-49 0 -82.5 31t-33.5 94q0 65 33.5 95t82.5 30q54 0 85.5 -34.5t31.5 -90.5t-31.5 -90.5t-85.5 -34.5zM735 -375q-63 0 -100 40t-37 108t36 107.5t101 39.5q64 0 100 -39.5t36 -107.5
q0 -69 -37.5 -108.5t-98.5 -39.5zM1084 -375q-64 0 -101 39t-37 109q0 68 36 107.5t102 39.5q62 0 98.5 -39t36.5 -108t-37.5 -108.5t-97.5 -39.5z" />
    <glyph glyph-name="uni0686.fina" unicode="&#x686;" horiz-adv-x="1321" arabic-form="final" 
d="M559 -668q-210 0 -338.5 116.5t-128.5 309.5q0 109 44 200.5t128 165t216.5 135.5t359.5 124q-29 81 -52 166q-33 122 -98.5 180.5t-175.5 58.5q-134 0 -305 -94l-109 226q99 52 228 83t250 31q407 0 475 -395q33 -184 104 -288.5t162 -104.5h12q10 0 10 -8v-228
q0 -10 -10 -10h-12q-142 0 -228.5 42t-146.5 130q-247 -63 -347 -113.5t-153 -119t-53 -164.5q0 -86 64.5 -139.5t165.5 -53.5zM909 -633q-49 0 -82.5 31t-33.5 94q0 65 33.5 95t82.5 30q54 0 85.5 -34.5t31.5 -90.5t-31.5 -90.5t-85.5 -34.5zM735 -375q-63 0 -100 40
t-37 108t36 107.5t101 39.5q64 0 100 -39.5t36 -107.5q0 -69 -37.5 -108.5t-98.5 -39.5zM1084 -375q-64 0 -101 39t-37 109q0 68 36 107.5t102 39.5q62 0 98.5 -39t36.5 -108t-37.5 -108.5t-97.5 -39.5z" />
    <glyph glyph-name="uni0623" unicode="&#x623;" horiz-adv-x="715" arabic-form="isolated" 
d="M205 1434h305v-1434h-305v1434zM123 1669l117 19q-40 20 -66 55.5t-26 83.5q0 88 61 137t164 49q101 0 168 -37l-41 -104q-52 26 -111 26q-44 0 -71 -26t-27 -72q0 -32 18 -56t44 -36l36 6q104 16 166 21v-119q-73 -5 -241.5 -25t-190.5 -26v104z" />
    <glyph glyph-name="uni0623.fina" unicode="&#x623;" horiz-adv-x="756" arabic-form="final" 
d="M766 246q10 0 10 -8v-228q0 -10 -10 -10h-561v1434h305v-1188h256zM123 1669l117 19q-40 20 -66 55.5t-26 83.5q0 88 61 137t164 49q101 0 168 -37l-41 -104q-52 26 -111 26q-44 0 -71 -26t-27 -72q0 -32 18 -56t44 -36l36 6q104 16 166 21v-119q-73 -5 -241.5 -25
t-190.5 -26v104z" />
    <glyph glyph-name="uni0625" unicode="&#x625;" horiz-adv-x="715" arabic-form="isolated" 
d="M205 1556h305v-1556h-305v1556zM139 -500l117 19q-41 20 -67 55.5t-26 83.5q0 86 61 136t165 50q101 0 168 -37l-41 -104q-57 27 -111 27q-44 0 -71 -26.5t-27 -72.5q0 -61 61 -92l37 6q100 16 166 21v-119q-73 -5 -241.5 -25t-190.5 -26v104z" />
    <glyph glyph-name="uni0625.fina" unicode="&#x625;" horiz-adv-x="756" arabic-form="final" 
d="M766 246q10 0 10 -8v-228q0 -10 -10 -10h-561v1556h305v-1310h256zM139 -500l117 19q-41 20 -67 55.5t-26 83.5q0 86 61 136t165 50q101 0 168 -37l-41 -104q-57 27 -111 27q-44 0 -71 -26.5t-27 -72.5q0 -61 61 -92l37 6q100 16 166 21v-119q-73 -5 -241.5 -25
t-190.5 -26v104z" />
    <glyph glyph-name="uni0622" unicode="&#x622;" horiz-adv-x="715" arabic-form="isolated" 
d="M205 1434h305v-1434h-305v1434zM6 1561q13 129 69 196.5t142 67.5q42 0 82.5 -17.5t78.5 -39t72.5 -39t63.5 -17.5q45 0 68 26.5t39 88.5h104q-10 -123 -65 -193.5t-146 -70.5q-40 0 -79.5 17.5t-77.5 38.5t-73.5 38.5t-66.5 17.5q-45 0 -68.5 -26.5t-37.5 -87.5h-105z
" />
    <glyph glyph-name="uni0622.fina" unicode="&#x622;" horiz-adv-x="756" arabic-form="final" 
d="M766 246q10 0 10 -8v-228q0 -10 -10 -10h-561v1434h305v-1188h256zM6 1561q13 129 69 196.5t142 67.5q42 0 82.5 -17.5t78.5 -39t72.5 -39t63.5 -17.5q45 0 68 26.5t39 88.5h104q-10 -123 -65 -193.5t-146 -70.5q-40 0 -79.5 17.5t-77.5 38.5t-73.5 38.5t-66.5 17.5
q-45 0 -68.5 -26.5t-37.5 -87.5h-105z" />
    <glyph glyph-name="uni0671" unicode="&#x671;" horiz-adv-x="715" arabic-form="isolated" 
d="M205 1434h305v-1434h-305v1434zM90 1692h94q72 209 229 209q83 0 129.5 -55.5t46.5 -153.5v-115h-499v115zM485 1692q0 51 -19.5 71.5t-56.5 20.5q-38 0 -68 -26t-44 -66h188z" />
    <glyph glyph-name="uni0671.fina" unicode="&#x671;" horiz-adv-x="756" arabic-form="final" 
d="M766 246q10 0 10 -8v-228q0 -10 -10 -10h-561v1434h305v-1188h256zM90 1692h94q72 209 229 209q83 0 129.5 -55.5t46.5 -153.5v-115h-499v115zM485 1692q0 51 -19.5 71.5t-56.5 20.5q-38 0 -68 -26t-44 -66h188z" />
    <glyph glyph-name="uni0628" unicode="&#x628;" horiz-adv-x="1776" arabic-form="isolated" 
d="M541 0q-189 0 -298.5 110t-109.5 302q0 77 18 164.5t48 148.5h270q-31 -133 -31 -268q0 -95 53 -153t140 -58h665v768h306v-1014h-1061zM912 -512q-64 0 -101 39.5t-37 107.5q0 69 36.5 108.5t101.5 39.5q62 0 98.5 -39t36.5 -109q0 -68 -37.5 -107.5t-97.5 -39.5z" />
    <glyph glyph-name="uni0628.init" unicode="&#x628;" horiz-adv-x="725" arabic-form="initial" 
d="M-10 0q-10 0 -10 10v228q0 8 10 8h256v768h305v-1014h-561zM381 -512q-64 0 -101 39.5t-37 107.5q0 69 36.5 108.5t101.5 39.5q62 0 98.5 -39t36.5 -109q0 -68 -37.5 -107.5t-97.5 -39.5z" />
    <glyph glyph-name="uni0628.medi" unicode="&#x628;" horiz-adv-x="807" arabic-form="medial" 
d="M817 246q10 0 10 -8v-228q0 -10 -10 -10h-827q-10 0 -10 10v228q0 8 10 8h256v768h305v-768h266zM392 -512q-64 0 -101 39.5t-37 107.5q0 69 36.5 108.5t101.5 39.5q62 0 98.5 -39t36.5 -109q0 -68 -37.5 -107.5t-97.5 -39.5z" />
    <glyph glyph-name="uni0628.fina" unicode="&#x628;" horiz-adv-x="1858" arabic-form="final" 
d="M541 0q-189 0 -298.5 110t-109.5 302q0 77 18 164.5t48 148.5h270q-31 -133 -31 -268q0 -95 53 -153t140 -58h665v768h306v-768h266q10 0 10 -8v-228q0 -10 -10 -10h-1327zM912 -512q-64 0 -101 39.5t-37 107.5q0 69 36.5 108.5t101.5 39.5q62 0 98.5 -39t36.5 -109
q0 -68 -37.5 -107.5t-97.5 -39.5z" />
    <glyph glyph-name="uni067E" unicode="&#x67e;" horiz-adv-x="1776" arabic-form="isolated" 
d="M541 0q-189 0 -298.5 110t-109.5 302q0 77 18 164.5t48 148.5h270q-31 -133 -31 -268q0 -95 53 -153t140 -58h665v768h306v-1014h-1061zM948 -674q-49 0 -82.5 31t-33.5 94q0 65 33.5 95t82.5 30q54 0 85.5 -34.5t31.5 -90.5t-31.5 -90.5t-85.5 -34.5zM774 -416
q-63 0 -100 40t-37 108t36 107.5t101 39.5q64 0 100 -39.5t36 -107.5q0 -69 -37.5 -108.5t-98.5 -39.5zM1123 -416q-64 0 -101 39t-37 109q0 68 36 107.5t102 39.5q62 0 98.5 -39t36.5 -108t-37.5 -108.5t-97.5 -39.5z" />
    <glyph glyph-name="uni067E.fina" unicode="&#x67e;" horiz-adv-x="1858" arabic-form="final" 
d="M541 0q-189 0 -298.5 110t-109.5 302q0 77 18 164.5t48 148.5h270q-31 -133 -31 -268q0 -95 53 -153t140 -58h665v768h306v-768h266q10 0 10 -8v-228q0 -10 -10 -10h-1327zM948 -674q-49 0 -82.5 31t-33.5 94q0 65 33.5 95t82.5 30q54 0 85.5 -34.5t31.5 -90.5
t-31.5 -90.5t-85.5 -34.5zM774 -416q-63 0 -100 40t-37 108t36 107.5t101 39.5q64 0 100 -39.5t36 -107.5q0 -69 -37.5 -108.5t-98.5 -39.5zM1123 -416q-64 0 -101 39t-37 109q0 68 36 107.5t102 39.5q62 0 98.5 -39t36.5 -108t-37.5 -108.5t-97.5 -39.5z" />
    <glyph glyph-name="uni067E.init" unicode="&#x67e;" horiz-adv-x="827" arabic-form="initial" 
d="M-10 0q-10 0 -10 10v228q0 8 10 8h358v768h305v-1014h-663zM327 -674q-49 0 -82.5 31t-33.5 94q0 65 33.5 95t82.5 30q54 0 85.5 -34.5t31.5 -90.5t-31.5 -90.5t-85.5 -34.5zM153 -416q-63 0 -100 40t-37 108t36 107.5t101 39.5q64 0 100 -39.5t36 -107.5
q0 -69 -37.5 -108.5t-98.5 -39.5zM502 -416q-64 0 -101 39t-37 109q0 68 36 107.5t102 39.5q62 0 98.5 -39t36.5 -108t-37.5 -108.5t-97.5 -39.5z" />
    <glyph glyph-name="uni067E.medi" unicode="&#x67e;" horiz-adv-x="909" arabic-form="medial" 
d="M-10 0q-10 0 -10 10v228q0 8 10 8h317v768h305v-768h308q10 0 10 -8v-228q0 -10 -10 -10h-930zM460 -674q-49 0 -82.5 31t-33.5 94q0 65 33.5 95t82.5 30q54 0 85.5 -34.5t31.5 -90.5t-31.5 -90.5t-85.5 -34.5zM286 -416q-63 0 -100 40t-37 108t36 107.5t101 39.5
q64 0 100 -39.5t36 -107.5q0 -69 -37.5 -108.5t-98.5 -39.5zM635 -416q-64 0 -101 39t-37 109q0 68 36 107.5t102 39.5q62 0 98.5 -39t36.5 -108t-37.5 -108.5t-97.5 -39.5z" />
    <glyph glyph-name="uni062A" unicode="&#x62a;" horiz-adv-x="1776" arabic-form="isolated" 
d="M541 0q-189 0 -298.5 110t-109.5 302q0 77 18 164.5t48 148.5h270q-31 -133 -31 -268q0 -95 53 -153t140 -58h665v768h306v-1014h-1061zM690 1015q-63 0 -100 39.5t-37 107.5q0 69 36.5 108.5t100.5 39.5q63 0 99 -39t36 -109t-37 -108.5t-98 -38.5zM1038 1015
q-63 0 -100 39.5t-37 107.5q0 69 36.5 108.5t100.5 39.5t100 -39.5t36 -108.5q0 -68 -37.5 -107.5t-98.5 -39.5z" />
    <glyph glyph-name="uni062A.init" unicode="&#x62a;" horiz-adv-x="827" arabic-form="initial" 
d="M-10 0q-10 0 -10 10v228q0 8 10 8h358v768h305v-1014h-663zM323 1190q-63 0 -100 39.5t-37 107.5q0 69 36.5 108.5t100.5 39.5q63 0 99 -39t36 -109t-37 -108.5t-98 -38.5zM671 1190q-63 0 -100 39.5t-37 107.5q0 69 36.5 108.5t100.5 39.5t100 -39.5t36 -108.5
q0 -68 -37.5 -107.5t-98.5 -39.5z" />
    <glyph glyph-name="uni062A.medi" unicode="&#x62a;" horiz-adv-x="909" arabic-form="medial" 
d="M-10 0q-10 0 -10 10v228q0 8 10 8h317v768h305v-768h308q10 0 10 -8v-228q0 -10 -10 -10h-930zM268 1190q-63 0 -100 39.5t-37 107.5q0 69 36.5 108.5t100.5 39.5q63 0 99 -39t36 -109t-37 -108.5t-98 -38.5zM616 1190q-63 0 -100 39.5t-37 107.5q0 69 36.5 108.5
t100.5 39.5t100 -39.5t36 -108.5q0 -68 -37.5 -107.5t-98.5 -39.5z" />
    <glyph glyph-name="uni062A.fina" unicode="&#x62a;" horiz-adv-x="1858" arabic-form="final" 
d="M541 0q-189 0 -298.5 110t-109.5 302q0 77 18 164.5t48 148.5h270q-31 -133 -31 -268q0 -95 53 -153t140 -58h665v768h306v-768h266q10 0 10 -8v-228q0 -10 -10 -10h-1327zM690 1015q-63 0 -100 39.5t-37 107.5q0 69 36.5 108.5t100.5 39.5q63 0 99 -39t36 -109
t-37 -108.5t-98 -38.5zM1038 1015q-63 0 -100 39.5t-37 107.5q0 69 36.5 108.5t100.5 39.5t100 -39.5t36 -108.5q0 -68 -37.5 -107.5t-98.5 -39.5z" />
    <glyph glyph-name="uni062B" unicode="&#x62b;" horiz-adv-x="1776" arabic-form="isolated" 
d="M541 0q-189 0 -298.5 110t-109.5 302q0 77 18 164.5t48 148.5h270q-31 -133 -31 -268q0 -95 53 -153t140 -58h665v768h306v-1014h-1061zM854 1345q-49 0 -82.5 31t-33.5 94q0 65 33.5 94.5t82.5 29.5q53 0 85 -33t32 -91q0 -56 -31.5 -90.5t-85.5 -34.5zM680 1015
q-63 0 -100 39.5t-37 107.5q0 69 36.5 108.5t100.5 39.5t100 -39.5t36 -108.5q0 -68 -37.5 -107.5t-98.5 -39.5zM1029 1015q-64 0 -101 39.5t-37 107.5q0 69 36.5 108.5t101.5 39.5q62 0 98.5 -39t36.5 -109q0 -68 -37.5 -107.5t-97.5 -39.5z" />
    <glyph glyph-name="uni062B.init" unicode="&#x62b;" horiz-adv-x="827" arabic-form="initial" 
d="M-10 0q-10 0 -10 10v228q0 8 10 8h358v768h305v-1014h-663zM501 1520q-49 0 -82.5 31t-33.5 94q0 65 33.5 94.5t82.5 29.5q53 0 85 -33t32 -91q0 -56 -31.5 -90.5t-85.5 -34.5zM327 1190q-63 0 -100 39.5t-37 107.5q0 69 36.5 108.5t100.5 39.5t100 -39.5t36 -108.5
q0 -68 -37.5 -107.5t-98.5 -39.5zM676 1190q-64 0 -101 39.5t-37 107.5q0 69 36.5 108.5t101.5 39.5q62 0 98.5 -39t36.5 -109q0 -68 -37.5 -107.5t-97.5 -39.5z" />
    <glyph glyph-name="uni062B.medi" unicode="&#x62b;" horiz-adv-x="909" arabic-form="medial" 
d="M-10 0q-10 0 -10 10v228q0 8 10 8h317v768h305v-768h308q10 0 10 -8v-228q0 -10 -10 -10h-930zM440 1520q-49 0 -82.5 31t-33.5 94q0 65 33.5 94.5t82.5 29.5q53 0 85 -33t32 -91q0 -56 -31.5 -90.5t-85.5 -34.5zM266 1190q-63 0 -100 39.5t-37 107.5q0 69 36.5 108.5
t100.5 39.5t100 -39.5t36 -108.5q0 -68 -37.5 -107.5t-98.5 -39.5zM615 1190q-64 0 -101 39.5t-37 107.5q0 69 36.5 108.5t101.5 39.5q62 0 98.5 -39t36.5 -109q0 -68 -37.5 -107.5t-97.5 -39.5z" />
    <glyph glyph-name="uni062B.fina" unicode="&#x62b;" horiz-adv-x="1858" arabic-form="final" 
d="M541 0q-189 0 -298.5 110t-109.5 302q0 77 18 164.5t48 148.5h270q-31 -133 -31 -268q0 -95 53 -153t140 -58h665v768h306v-768h266q10 0 10 -8v-228q0 -10 -10 -10h-1327zM854 1345q-49 0 -82.5 31t-33.5 94q0 65 33.5 94.5t82.5 29.5q53 0 85 -33t32 -91
q0 -56 -31.5 -90.5t-85.5 -34.5zM680 1015q-63 0 -100 39.5t-37 107.5q0 69 36.5 108.5t100.5 39.5t100 -39.5t36 -108.5q0 -68 -37.5 -107.5t-98.5 -39.5zM1029 1015q-64 0 -101 39.5t-37 107.5q0 69 36.5 108.5t101.5 39.5q62 0 98.5 -39t36.5 -109q0 -68 -37.5 -107.5
t-97.5 -39.5z" />
    <glyph glyph-name="uni0679" unicode="&#x679;" horiz-adv-x="1776" arabic-form="isolated" 
d="M541 0q-189 0 -298.5 110t-109.5 302q0 77 18 164.5t48 148.5h270q-31 -133 -31 -268q0 -95 53 -153t140 -58h665v768h306v-1014h-1061zM616 1146h31v372h123v-239q56 92 162 92q91 0 130.5 -47.5t39.5 -151.5v-155h-486v129zM979 1146v10q0 54 -16 80t-54 26
q-52 0 -83.5 -27t-53.5 -67l-2 -22h209z" />
    <glyph glyph-name="uni0679.init" unicode="&#x679;" horiz-adv-x="827" arabic-form="initial" 
d="M-10 0q-10 0 -10 10v228q0 8 10 8h358v768h305v-1014h-663zM247 1311h31v372h123v-239q56 92 162 92q91 0 130.5 -47.5t39.5 -151.5v-155h-486v129zM610 1311v10q0 54 -16 80t-54 26q-52 0 -83.5 -27t-53.5 -67l-2 -22h209z" />
    <glyph glyph-name="uni0679.medi" unicode="&#x679;" horiz-adv-x="909" arabic-form="medial" 
d="M-10 0q-10 0 -10 10v228q0 8 10 8h317v768h305v-768h308q10 0 10 -8v-228q0 -10 -10 -10h-930zM204 1311h31v372h123v-239q56 92 162 92q91 0 130.5 -47.5t39.5 -151.5v-155h-486v129zM567 1311v10q0 54 -16 80t-54 26q-52 0 -83.5 -27t-53.5 -67l-2 -22h209z" />
    <glyph glyph-name="uni0679.fina" unicode="&#x679;" horiz-adv-x="1858" arabic-form="final" 
d="M541 0q-189 0 -298.5 110t-109.5 302q0 77 18 164.5t48 148.5h270q-31 -133 -31 -268q0 -95 53 -153t140 -58h665v768h306v-768h266q10 0 10 -8v-228q0 -10 -10 -10h-1327zM616 1146h31v372h123v-239q56 92 162 92q91 0 130.5 -47.5t39.5 -151.5v-155h-486v129zM979 1146
v10q0 54 -16 80t-54 26q-52 0 -83.5 -27t-53.5 -67l-2 -22h209z" />
    <glyph glyph-name="uni0629" unicode="&#x629;" horiz-adv-x="1292" arabic-form="isolated" 
d="M643 -20q-250 0 -380 119t-130 352q0 159 65.5 294.5t182.5 212t268 76.5q139 0 253 -74t185.5 -212.5t71.5 -296.5q0 -243 -130 -357t-386 -114zM641 229q108 0 159.5 57.5t51.5 174.5q0 132 -62.5 229.5t-150.5 97.5t-149.5 -95t-61.5 -232q0 -118 52.5 -175t160.5 -57
zM444 1190q-63 0 -100 39.5t-37 107.5q0 69 36.5 108.5t100.5 39.5q63 0 99 -39t36 -109t-37 -108.5t-98 -38.5zM792 1190q-63 0 -100 39.5t-37 107.5q0 69 36.5 108.5t100.5 39.5t100 -39.5t36 -108.5q0 -68 -37.5 -107.5t-98.5 -39.5z" />
    <glyph glyph-name="uni0629.fina" unicode="&#x629;" horiz-adv-x="1341" arabic-form="final" 
d="M1352 246q10 0 10 -8v-228q0 -10 -10 -10h-621q-284 0 -441 132.5t-157 369.5q0 151 72 268t206.5 180.5t319.5 63.5h57v100h308v-868h256zM791 246v522h-54q-140 0 -215.5 -69t-75.5 -199q0 -122 74 -188t213 -66h58zM600 1243q-63 0 -100 39.5t-37 107.5
q0 69 36.5 108.5t100.5 39.5q63 0 99 -39t36 -109t-37 -108.5t-98 -38.5zM948 1243q-63 0 -100 39.5t-37 107.5q0 69 36.5 108.5t100.5 39.5t100 -39.5t36 -108.5q0 -68 -37.5 -107.5t-98.5 -39.5z" />
    <glyph glyph-name="uni0686.init" unicode="&#x686;" horiz-adv-x="1255" arabic-form="initial" 
d="M-10 0q-10 0 -10 10v228q0 8 10 8h825v2q-80 72 -123 291q-28 138 -82.5 193.5t-163.5 55.5q-72 0 -135 -18t-137 -59l-92 225q183 98 428 98q205 0 319 -92t150 -303q53 -305 143 -393v-246h-1132zM544 -674q-49 0 -82.5 31t-33.5 94q0 65 33.5 95t82.5 30
q54 0 85.5 -34.5t31.5 -90.5t-31.5 -90.5t-85.5 -34.5zM370 -416q-63 0 -100 40t-37 108t36 107.5t101 39.5q64 0 100 -39.5t36 -107.5q0 -69 -37.5 -108.5t-98.5 -39.5zM719 -416q-64 0 -101 39t-37 109q0 68 36 107.5t102 39.5q62 0 98.5 -39t36.5 -108t-37.5 -108.5
t-97.5 -39.5z" />
    <glyph glyph-name="uni0686.medi" unicode="&#x686;" horiz-adv-x="1245" arabic-form="medial" 
d="M-10 0q-10 0 -10 10v228q0 8 10 8h827q-81 76 -125 293q-28 138 -82.5 193.5t-163.5 55.5q-72 0 -135 -18t-137 -59l-92 225q183 98 428 98q205 0 319 -92t150 -303q53 -305 143 -393h133q11 0 11 -8v-228q0 -10 -11 -10h-1265zM544 -674q-49 0 -82.5 31t-33.5 94
q0 65 33.5 95t82.5 30q54 0 85.5 -34.5t31.5 -90.5t-31.5 -90.5t-85.5 -34.5zM370 -416q-63 0 -100 40t-37 108t36 107.5t101 39.5q64 0 100 -39.5t36 -107.5q0 -69 -37.5 -108.5t-98.5 -39.5zM719 -416q-64 0 -101 39t-37 109q0 68 36 107.5t102 39.5q62 0 98.5 -39
t36.5 -108t-37.5 -108.5t-97.5 -39.5z" />
    <glyph glyph-name="uni062C" unicode="&#x62c;" horiz-adv-x="1399" arabic-form="isolated" 
d="M559 -668q-210 0 -338.5 116.5t-128.5 309.5q0 109 43.5 199.5t127 164t217.5 137t358 124.5q-32 97 -50 166q-31 121 -97.5 180t-176.5 59q-134 0 -305 -94l-109 226q99 52 228 83t250 31q407 0 475 -395q35 -193 81.5 -283.5t131.5 -154.5l-156 -201q-100 79 -166 172
q-247 -63 -347 -113.5t-153 -119t-53 -164.5q0 -86 64.5 -139.5t165.5 -53.5q137 0 301 43l34 -223q-199 -70 -397 -70zM705 -309q-64 0 -101 39.5t-37 107.5q0 69 36.5 108.5t101.5 39.5q62 0 98.5 -39t36.5 -109q0 -68 -37.5 -107.5t-97.5 -39.5z" />
    <glyph glyph-name="uni062C.init" unicode="&#x62c;" horiz-adv-x="1255" arabic-form="initial" 
d="M-10 0q-10 0 -10 10v228q0 8 10 8h825v2q-80 72 -123 291q-28 138 -82.5 193.5t-163.5 55.5q-72 0 -135 -18t-137 -59l-92 225q183 98 428 98q205 0 319 -92t150 -303q53 -305 143 -393v-246h-1132zM488 -512q-64 0 -101 39.5t-37 107.5q0 69 36.5 108.5t101.5 39.5
q62 0 98.5 -39t36.5 -109q0 -68 -37.5 -107.5t-97.5 -39.5z" />
    <glyph glyph-name="uni062C.medi" unicode="&#x62c;" horiz-adv-x="1245" arabic-form="medial" 
d="M-10 0q-10 0 -10 10v228q0 8 10 8h827q-81 76 -125 293q-28 138 -82.5 193.5t-163.5 55.5q-72 0 -135 -18t-137 -59l-92 225q183 98 428 98q205 0 319 -92t150 -303q53 -305 143 -393h133q11 0 11 -8v-228q0 -10 -11 -10h-1265zM488 -512q-64 0 -101 39.5t-37 107.5
q0 69 36.5 108.5t101.5 39.5q62 0 98.5 -39t36.5 -109q0 -68 -37.5 -107.5t-97.5 -39.5z" />
    <glyph glyph-name="uni062C.fina" unicode="&#x62c;" horiz-adv-x="1321" arabic-form="final" 
d="M1319 0q-142 0 -228.5 42t-146.5 130q-247 -63 -347 -113.5t-153 -119t-53 -164.5q0 -86 64.5 -139.5t165.5 -53.5q137 0 301 43l34 -223q-199 -70 -397 -70q-210 0 -338.5 116.5t-128.5 309.5q0 109 44 200.5t128 165t216.5 135.5t359.5 124q-29 81 -52 166
q-33 122 -98.5 180.5t-175.5 58.5q-134 0 -305 -94l-109 226q99 52 228 83t250 31q407 0 475 -395q33 -184 104 -288.5t162 -104.5h12q10 0 10 -8v-228q0 -10 -10 -10h-12zM705 -309q-64 0 -101 39.5t-37 107.5q0 69 36.5 108.5t101.5 39.5q62 0 98.5 -39t36.5 -109
q0 -68 -37.5 -107.5t-97.5 -39.5z" />
    <glyph glyph-name="uni062E" unicode="&#x62e;" horiz-adv-x="1399" arabic-form="isolated" 
d="M559 -668q-210 0 -338.5 116.5t-128.5 309.5q0 109 43.5 199.5t127 164t217.5 137t358 124.5q-32 97 -50 166q-31 121 -97.5 180t-176.5 59q-134 0 -305 -94l-109 226q99 52 228 83t250 31q407 0 475 -395q35 -193 81.5 -283.5t131.5 -154.5l-156 -201q-100 79 -166 172
q-247 -63 -347 -113.5t-153 -119t-53 -164.5q0 -86 64.5 -139.5t165.5 -53.5q137 0 301 43l34 -223q-199 -70 -397 -70zM531 1190q-64 0 -101 39.5t-37 107.5q0 69 36.5 108.5t101.5 39.5q62 0 98.5 -39t36.5 -109q0 -68 -37.5 -107.5t-97.5 -39.5z" />
    <glyph glyph-name="uni062E.init" unicode="&#x62e;" horiz-adv-x="1255" arabic-form="initial" 
d="M-10 0q-10 0 -10 10v228q0 8 10 8h825v2q-80 72 -123 291q-28 138 -82.5 193.5t-163.5 55.5q-72 0 -135 -18t-137 -59l-92 225q183 98 428 98q205 0 319 -92t150 -303q53 -305 143 -393v-246h-1132zM531 1190q-64 0 -101 39.5t-37 107.5q0 69 36.5 108.5t101.5 39.5
q62 0 98.5 -39t36.5 -109q0 -68 -37.5 -107.5t-97.5 -39.5z" />
    <glyph glyph-name="uni062E.medi" unicode="&#x62e;" horiz-adv-x="1245" arabic-form="medial" 
d="M-10 0q-10 0 -10 10v228q0 8 10 8h827q-81 76 -125 293q-28 138 -82.5 193.5t-163.5 55.5q-72 0 -135 -18t-137 -59l-92 225q183 98 428 98q205 0 319 -92t150 -303q53 -305 143 -393h133q11 0 11 -8v-228q0 -10 -11 -10h-1265zM531 1190q-64 0 -101 39.5t-37 107.5
q0 69 36.5 108.5t101.5 39.5q62 0 98.5 -39t36.5 -109q0 -68 -37.5 -107.5t-97.5 -39.5z" />
    <glyph glyph-name="uni062E.fina" unicode="&#x62e;" horiz-adv-x="1321" arabic-form="final" 
d="M1319 0q-142 0 -228.5 42t-146.5 130q-247 -63 -347 -113.5t-153 -119t-53 -164.5q0 -86 64.5 -139.5t165.5 -53.5q137 0 301 43l34 -223q-199 -70 -397 -70q-210 0 -338.5 116.5t-128.5 309.5q0 109 44 200.5t128 165t216.5 135.5t359.5 124q-29 81 -52 166
q-33 122 -98.5 180.5t-175.5 58.5q-134 0 -305 -94l-109 226q99 52 228 83t250 31q407 0 475 -395q33 -184 104 -288.5t162 -104.5h12q10 0 10 -8v-228q0 -10 -10 -10h-12zM531 1190q-64 0 -101 39.5t-37 107.5q0 69 36.5 108.5t101.5 39.5q62 0 98.5 -39t36.5 -109
q0 -68 -37.5 -107.5t-97.5 -39.5z" />
    <glyph glyph-name="uni0630" unicode="&#x630;" horiz-adv-x="1219" arabic-form="isolated" 
d="M92 246h684q-42 189 -102.5 305.5t-154 201t-228.5 140.5l115 287q274 -110 439.5 -339.5t239.5 -602.5v-238h-993v246zM406 1340q-64 0 -101 39.5t-37 107.5q0 69 36.5 108.5t101.5 39.5q62 0 98.5 -39t36.5 -109q0 -68 -37.5 -107.5t-97.5 -39.5z" />
    <glyph glyph-name="uni0630.fina" unicode="&#x630;" horiz-adv-x="1341" arabic-form="final" 
d="M92 246h684q-42 189 -102.5 305.5t-154 201t-228.5 140.5l115 287q270 -108 435 -334t242 -600h269q10 0 10 -8v-228q0 -10 -10 -10h-1260v246zM406 1340q-64 0 -101 39.5t-37 107.5q0 69 36.5 108.5t101.5 39.5q62 0 98.5 -39t36.5 -109q0 -68 -37.5 -107.5t-97.5 -39.5
z" />
    <glyph glyph-name="uni0688" unicode="&#x688;" horiz-adv-x="1219" arabic-form="isolated" 
d="M92 246h684q-42 189 -102.5 305.5t-154 201t-228.5 140.5l115 287q274 -110 439.5 -339.5t239.5 -602.5v-238h-993v246zM182 1477h31v372h123v-239q56 92 162 92q91 0 130.5 -47.5t39.5 -151.5v-155h-486v129zM545 1477v10q0 54 -16 80t-54 26q-52 0 -83.5 -27t-53.5 -67
l-2 -22h209z" />
    <glyph glyph-name="uni0688.fina" unicode="&#x688;" horiz-adv-x="1341" arabic-form="final" 
d="M92 246h684q-42 189 -102.5 305.5t-154 201t-228.5 140.5l115 287q270 -108 435 -334t242 -600h269q10 0 10 -8v-228q0 -10 -10 -10h-1260v246zM182 1477h31v372h123v-239q56 92 162 92q91 0 130.5 -47.5t39.5 -151.5v-155h-486v129zM545 1477v10q0 54 -16 80t-54 26
q-52 0 -83.5 -27t-53.5 -67l-2 -22h209z" />
    <glyph glyph-name="uni0632" unicode="&#x632;" horiz-adv-x="897" arabic-form="isolated" 
d="M295 -492q-105 0 -192.5 25t-184.5 90l123 199q54 -34 95.5 -47t99.5 -13q82 0 132 62.5t50 157.5v1032h305v-1047q0 -211 -116.5 -335t-311.5 -124zM555 1190q-64 0 -101 39.5t-37 107.5q0 69 36.5 108.5t101.5 39.5q62 0 98.5 -39t36.5 -109q0 -68 -37.5 -107.5
t-97.5 -39.5z" />
    <glyph glyph-name="uni0632.fina" unicode="&#x632;" horiz-adv-x="979" arabic-form="final" 
d="M989 246q10 0 10 -8v-228q0 -10 -10 -10h-266v-33q0 -211 -116.5 -335t-311.5 -124q-105 0 -192.5 25t-184.5 90l123 199q54 -34 95.5 -47t99.5 -13q82 0 132 62.5t50 157.5v1032h305v-768h266zM596 1190q-64 0 -101 39.5t-37 107.5q0 69 36.5 108.5t101.5 39.5
q62 0 98.5 -39t36.5 -109q0 -68 -37.5 -107.5t-97.5 -39.5z" />
    <glyph glyph-name="uni0691" unicode="&#x691;" horiz-adv-x="897" arabic-form="isolated" 
d="M295 -492q-105 0 -192.5 25t-184.5 90l123 199q54 -34 95.5 -47t99.5 -13q82 0 132 62.5t50 157.5v1032h305v-1047q0 -211 -116.5 -335t-311.5 -124zM321 1311h31v372h123v-239q56 92 162 92q91 0 130.5 -47.5t39.5 -151.5v-155h-486v129zM684 1311v10q0 54 -16 80
t-54 26q-52 0 -83.5 -27t-53.5 -67l-2 -22h209z" />
    <glyph glyph-name="uni0691.fina" unicode="&#x691;" horiz-adv-x="979" arabic-form="final" 
d="M989 246q10 0 10 -8v-228q0 -10 -10 -10h-266v-33q0 -211 -116.5 -335t-311.5 -124q-105 0 -192.5 25t-184.5 90l123 199q54 -34 95.5 -47t99.5 -13q82 0 132 62.5t50 157.5v1032h305v-768h266zM362 1311h31v372h123v-239q56 92 162 92q91 0 130.5 -47.5t39.5 -151.5
v-155h-486v129zM725 1311v10q0 54 -16 80t-54 26q-52 0 -83.5 -27t-53.5 -67l-2 -22h209z" />
    <glyph glyph-name="uni0698" unicode="&#x698;" horiz-adv-x="897" arabic-form="isolated" 
d="M295 -492q-105 0 -192.5 25t-184.5 90l123 199q54 -34 95.5 -47t99.5 -13q82 0 132 62.5t50 157.5v1032h305v-1047q0 -211 -116.5 -335t-311.5 -124zM550 1520q-49 0 -82.5 31t-33.5 94q0 65 33.5 94.5t82.5 29.5q53 0 85 -33t32 -91q0 -56 -31.5 -90.5t-85.5 -34.5z
M376 1190q-63 0 -100 39.5t-37 107.5q0 69 36.5 108.5t100.5 39.5t100 -39.5t36 -108.5q0 -68 -37.5 -107.5t-98.5 -39.5zM725 1190q-64 0 -101 39.5t-37 107.5q0 69 36.5 108.5t101.5 39.5q62 0 98.5 -39t36.5 -109q0 -68 -37.5 -107.5t-97.5 -39.5z" />
    <glyph glyph-name="uni0698.fina" unicode="&#x698;" horiz-adv-x="979" arabic-form="final" 
d="M989 246q10 0 10 -8v-228q0 -10 -10 -10h-266v-33q0 -211 -116.5 -335t-311.5 -124q-105 0 -192.5 25t-184.5 90l123 199q54 -34 95.5 -47t99.5 -13q82 0 132 62.5t50 157.5v1032h305v-768h266zM591 1520q-49 0 -82.5 31t-33.5 94q0 65 33.5 94.5t82.5 29.5q53 0 85 -33
t32 -91q0 -56 -31.5 -90.5t-85.5 -34.5zM417 1190q-63 0 -100 39.5t-37 107.5q0 69 36.5 108.5t100.5 39.5t100 -39.5t36 -108.5q0 -68 -37.5 -107.5t-98.5 -39.5zM766 1190q-64 0 -101 39.5t-37 107.5q0 69 36.5 108.5t101.5 39.5q62 0 98.5 -39t36.5 -109
q0 -68 -37.5 -107.5t-97.5 -39.5z" />
    <glyph glyph-name="uni0634" unicode="&#x634;" horiz-adv-x="2890" arabic-form="isolated" 
d="M1559 246q102 0 149 57t47 180v371h305v-395q0 -50 -6 -92q51 -68 101.5 -94.5t128.5 -26.5h126v768h306v-1014h-426q-174 0 -322 154q-115 -154 -342 -154h-244q-37 -492 -602 -492h-90q-171 0 -297.5 72t-193 202.5t-66.5 299.5q0 116 28 236.5t77 216.5h270
q-32 -110 -51 -230.5t-19 -224.5q0 -149 75 -237.5t198 -88.5h61q158 0 232.5 85.5t74.5 240.5v774h305v-608h175zM1898 1520q-49 0 -82.5 31t-33.5 94q0 65 33.5 94.5t82.5 29.5q53 0 85 -33t32 -91q0 -56 -31.5 -90.5t-85.5 -34.5zM1724 1190q-63 0 -100 39.5t-37 107.5
q0 69 36.5 108.5t100.5 39.5t100 -39.5t36 -108.5q0 -68 -37.5 -107.5t-98.5 -39.5zM2073 1190q-64 0 -101 39.5t-37 107.5q0 69 36.5 108.5t101.5 39.5q62 0 98.5 -39t36.5 -109q0 -68 -37.5 -107.5t-97.5 -39.5z" />
    <glyph glyph-name="uni0634.init" unicode="&#x634;" horiz-adv-x="2056" arabic-form="initial" 
d="M-10 0q-10 0 -10 10v228q0 8 10 8h256v608h305v-608h174q102 0 149.5 56.5t47.5 180.5v371h305v-395q0 -50 -6 -92q50 -67 100 -94t129 -27h127v768h305v-1014h-426q-173 0 -321 154q-115 -154 -342 -154h-803zM1079 1563q-49 0 -82.5 31t-33.5 94q0 65 33.5 94.5
t82.5 29.5q53 0 85 -33t32 -91q0 -56 -31.5 -90.5t-85.5 -34.5zM905 1233q-63 0 -100 39.5t-37 107.5q0 69 36.5 108.5t100.5 39.5t100 -39.5t36 -108.5q0 -68 -37.5 -107.5t-98.5 -39.5zM1254 1233q-64 0 -101 39.5t-37 107.5q0 69 36.5 108.5t101.5 39.5q62 0 98.5 -39
t36.5 -109q0 -68 -37.5 -107.5t-97.5 -39.5z" />
    <glyph glyph-name="uni0634.medi" unicode="&#x634;" horiz-adv-x="2138" arabic-form="medial" 
d="M2148 246q11 0 11 -8v-228q0 -10 -11 -10h-692q-173 0 -321 154q-115 -154 -342 -154h-803q-10 0 -10 10v228q0 8 10 8h256v608h305v-608h174q102 0 149.5 56.5t47.5 180.5v371h305v-395q0 -50 -6 -92q50 -67 100 -94t129 -27h127v768h305v-768h266zM1087 1520
q-49 0 -82.5 31t-33.5 94q0 65 33.5 94.5t82.5 29.5q53 0 85 -33t32 -91q0 -56 -31.5 -90.5t-85.5 -34.5zM913 1190q-63 0 -100 39.5t-37 107.5q0 69 36.5 108.5t100.5 39.5t100 -39.5t36 -108.5q0 -68 -37.5 -107.5t-98.5 -39.5zM1262 1190q-64 0 -101 39.5t-37 107.5
q0 69 36.5 108.5t101.5 39.5q62 0 98.5 -39t36.5 -109q0 -68 -37.5 -107.5t-97.5 -39.5z" />
    <glyph glyph-name="uni0634.fina" unicode="&#x634;" horiz-adv-x="2972" arabic-form="final" 
d="M2982 246q10 0 10 -8v-228q0 -10 -10 -10h-692q-174 0 -322 154q-115 -154 -342 -154h-244q-37 -492 -602 -492h-90q-171 0 -297.5 72t-193 202.5t-66.5 299.5q0 116 28 236.5t77 216.5h270q-32 -110 -51 -230.5t-19 -224.5q0 -149 75 -237.5t198 -88.5h61
q158 0 232.5 85.5t74.5 240.5v774h305v-608h175q102 0 149 57t47 180v371h305v-395q0 -50 -6 -92q51 -68 101.5 -94.5t128.5 -26.5h126v768h306v-768h266zM1898 1520q-49 0 -82.5 31t-33.5 94q0 65 33.5 94.5t82.5 29.5q53 0 85 -33t32 -91q0 -56 -31.5 -90.5t-85.5 -34.5z
M1724 1190q-63 0 -100 39.5t-37 107.5q0 69 36.5 108.5t100.5 39.5t100 -39.5t36 -108.5q0 -68 -37.5 -107.5t-98.5 -39.5zM2073 1190q-64 0 -101 39.5t-37 107.5q0 69 36.5 108.5t101.5 39.5q62 0 98.5 -39t36.5 -109q0 -68 -37.5 -107.5t-97.5 -39.5z" />
    <glyph glyph-name="uni0636" unicode="&#x636;" horiz-adv-x="2601" arabic-form="isolated" 
d="M690 -492q-171 0 -297.5 72t-193 202.5t-66.5 299.5q0 116 28 236.5t77 216.5h270q-32 -110 -51 -230.5t-19 -224.5q0 -149 75 -237.5t198 -88.5h61q158 0 232.5 85.5t74.5 240.5v934h305v-359q187 379 555 379q252 0 380 -132.5t128 -409.5v-492h-1065
q-15 -242 -168 -367t-434 -125h-90zM2142 246v252q0 149 -68.5 219.5t-211.5 70.5q-277 0 -478 -382v-160h758zM1852 1190q-64 0 -101 39.5t-37 107.5q0 69 36.5 108.5t101.5 39.5q62 0 98.5 -39t36.5 -109q0 -68 -37.5 -107.5t-97.5 -39.5z" />
    <glyph glyph-name="uni0636.init" unicode="&#x636;" horiz-adv-x="1753" arabic-form="initial" 
d="M1294 246v252q0 149 -68.5 219.5t-211.5 70.5q-276 0 -477 -382v-160h757zM-10 0q-10 0 -10 10v228q0 8 10 8h241v768h306v-359q187 379 555 379q251 0 379 -132.5t128 -409.5v-492h-1609zM965 1190q-64 0 -101 39.5t-37 107.5q0 69 36.5 108.5t101.5 39.5q62 0 98.5 -39
t36.5 -109q0 -68 -37.5 -107.5t-97.5 -39.5z" />
    <glyph glyph-name="uni0636.medi" unicode="&#x636;" horiz-adv-x="1855" arabic-form="medial" 
d="M-10 0q-10 0 -10 10v228q0 8 10 8h241v768h306v-359q187 379 555 379q251 0 379 -132.5t128 -409.5v-246h267q10 0 10 -8v-228q0 -10 -10 -10h-1876zM1294 246v252q0 149 -68.5 219.5t-211.5 70.5q-276 0 -477 -382v-160h757zM990 1190q-64 0 -101 39.5t-37 107.5
q0 69 36.5 108.5t101.5 39.5q62 0 98.5 -39t36.5 -109q0 -68 -37.5 -107.5t-97.5 -39.5z" />
    <glyph glyph-name="uni0636.fina" unicode="&#x636;" horiz-adv-x="2703" arabic-form="final" 
d="M2714 246q10 0 10 -8v-228q0 -10 -10 -10h-1332q-15 -242 -168 -367t-434 -125h-90q-171 0 -297.5 72t-193 202.5t-66.5 299.5q0 116 28 236.5t77 216.5h270q-32 -110 -51 -230.5t-19 -224.5q0 -149 75 -237.5t198 -88.5h61q158 0 232.5 85.5t74.5 240.5v934h305v-359
q187 379 555 379q252 0 380 -132.5t128 -409.5v-246h267zM2142 246v252q0 149 -68.5 219.5t-211.5 70.5q-277 0 -478 -382v-160h758zM1852 1190q-64 0 -101 39.5t-37 107.5q0 69 36.5 108.5t101.5 39.5q62 0 98.5 -39t36.5 -109q0 -68 -37.5 -107.5t-97.5 -39.5z" />
    <glyph glyph-name="uni0638" unicode="&#x638;" horiz-adv-x="1753" arabic-form="isolated" 
d="M1294 246v252q0 149 -68.5 219.5t-211.5 70.5q-276 0 -477 -382v-160h757zM41 246h190v1310h306v-901q187 379 555 379q251 0 379 -132.5t128 -409.5v-492h-1558v246zM1010 1190q-64 0 -101 39.5t-37 107.5q0 69 36.5 108.5t101.5 39.5q62 0 98.5 -39t36.5 -109
q0 -68 -37.5 -107.5t-97.5 -39.5z" />
    <glyph glyph-name="uni0638.init" unicode="&#x638;" horiz-adv-x="1815" arabic-form="initial" 
d="M1356 246v252q0 149 -68.5 219.5t-212.5 70.5q-276 0 -477 -382v-160h758zM-10 0q-10 0 -10 10v228q0 8 10 8h303v1310h305v-901q187 379 555 379q252 0 380 -132.5t128 -409.5v-492h-1671zM1061 1190q-64 0 -101 39.5t-37 107.5q0 69 36.5 108.5t101.5 39.5
q62 0 98.5 -39t36.5 -109q0 -68 -37.5 -107.5t-97.5 -39.5z" />
    <glyph glyph-name="uni0638.medi" unicode="&#x638;" horiz-adv-x="1855" arabic-form="medial" 
d="M-10 0q-10 0 -10 10v228q0 8 10 8h241v1310h306v-901q187 379 555 379q251 0 379 -132.5t128 -409.5v-246h267q10 0 10 -8v-228q0 -10 -10 -10h-1876zM1294 246v252q0 149 -68.5 219.5t-211.5 70.5q-276 0 -477 -382v-160h757zM979 1190q-64 0 -101 39.5t-37 107.5
q0 69 36.5 108.5t101.5 39.5q62 0 98.5 -39t36.5 -109q0 -68 -37.5 -107.5t-97.5 -39.5z" />
    <glyph glyph-name="uni0638.fina" unicode="&#x638;" horiz-adv-x="1855" arabic-form="final" 
d="M41 246h190v1310h306v-901q187 379 555 379q251 0 379 -132.5t128 -409.5v-246h267q10 0 10 -8v-228q0 -10 -10 -10h-1825v246zM1294 246v252q0 149 -68.5 219.5t-211.5 70.5q-276 0 -477 -382v-160h757zM1014 1190q-64 0 -101 39.5t-37 107.5q0 69 36.5 108.5
t101.5 39.5q62 0 98.5 -39t36.5 -109q0 -68 -37.5 -107.5t-97.5 -39.5z" />
    <glyph glyph-name="uni063A" unicode="&#x63a;" horiz-adv-x="1214" arabic-form="isolated" 
d="M600 -668q-210 0 -338.5 114.5t-128.5 301.5q0 229 260 408q-72 72 -126 182t-54 203q0 230 151.5 361.5t413.5 131.5q90 0 188.5 -20t155.5 -47l-86 -240q-81 35 -142.5 48t-123.5 13q-128 0 -196 -67.5t-68 -192.5q0 -86 21 -146.5t63 -117.5q177 79 356 135l72 -231
q-314 -79 -450 -177t-136 -227q0 -85 58.5 -133.5t171.5 -48.5q137 0 301 43l34 -223q-199 -70 -397 -70zM674 1190q-64 0 -101 39.5t-37 107.5q0 69 36.5 108.5t101.5 39.5q62 0 98.5 -39t36.5 -109q0 -68 -37.5 -107.5t-97.5 -39.5z" />
    <glyph glyph-name="uni063A.init" unicode="&#x63a;" horiz-adv-x="1161" arabic-form="initial" 
d="M-10 0q-10 0 -10 10v228q0 8 10 8h315q-76 34 -121 115t-45 180q0 230 151.5 361.5t414.5 131.5q90 0 188.5 -20t155.5 -47l-86 -240q-79 34 -141 47.5t-126 13.5q-126 0 -195 -67t-69 -193q0 -124 71 -203t191 -79h375v-246h-1079zM633 1190q-64 0 -101 39.5t-37 107.5
q0 69 36.5 108.5t101.5 39.5q62 0 98.5 -39t36.5 -109q0 -68 -37.5 -107.5t-97.5 -39.5z" />
    <glyph glyph-name="uni063A.medi" unicode="&#x63a;" horiz-adv-x="1237" arabic-form="medial" 
d="M1247 246q10 0 10 -8v-228q0 -10 -10 -10h-260q-96 0 -200 32.5t-179 82.5q-188 -115 -381 -115h-237q-10 0 -10 10v228q0 8 10 8h205q46 0 101.5 11t90.5 28q-61 47 -129 148t-118 221t-68 231q120 100 275.5 157.5t299.5 57.5q293 0 514 -123q0 -222 -90 -407
t-244 -283q76 -41 185 -41h235zM612 412q240 143 258 405q-89 37 -231 37q-66 0 -142 -23t-120 -55q30 -113 92.5 -212t142.5 -152zM613 1292q-64 0 -101 39.5t-37 107.5q0 69 36.5 108.5t101.5 39.5q62 0 98.5 -39t36.5 -109q0 -68 -37.5 -107.5t-97.5 -39.5z" />
    <glyph glyph-name="uni063A.fina" unicode="&#x63a;" horiz-adv-x="1298" arabic-form="final" 
d="M141 -252q0 135 81.5 259.5t252.5 248.5q-131 123 -223.5 292.5t-118.5 336.5q119 99 276 157t300 58q291 0 514 -123q0 -212 -86 -392t-250 -315q82 -24 186 -24h236q10 0 10 -8v-228q0 -10 -10 -10h-260q-82 0 -184 31t-193 84q-123 -92 -177.5 -175.5t-54.5 -175.5
q0 -85 58.5 -133.5t171.5 -48.5q137 0 301 43l35 -223q-111 -38 -205 -54t-193 -16q-210 0 -338.5 114.5t-128.5 301.5zM438 776q65 -221 242 -385q107 77 174.5 189.5t77.5 236.5q-52 21 -105.5 29t-126.5 8q-66 0 -143 -24t-119 -54zM693 1292q-64 0 -101 39.5t-37 107.5
q0 69 36.5 108.5t101.5 39.5q62 0 98.5 -39t36.5 -109q0 -68 -37.5 -107.5t-97.5 -39.5z" />
    <glyph glyph-name="uni06A9.init" unicode="&#x6a9;" horiz-adv-x="1249" arabic-form="initial" 
d="M-10 0q-10 0 -10 10v228q0 8 10 8h801v329q0 124 -85 190t-241 66h-348v222q108 229 305.5 403.5t458.5 267.5l112 -274q-178 -54 -333 -159t-226 -214h78q584 0 584 -463v-614h-1106z" />
    <glyph glyph-name="uni06A9.medi" unicode="&#x6a9;" horiz-adv-x="1352" arabic-form="medial" 
d="M-10 0q-10 0 -10 10v228q0 8 10 8h801v329q0 124 -85 190t-241 66h-348v222q108 229 305.5 403.5t458.5 267.5l112 -274q-178 -54 -333 -159t-226 -214h78q584 0 584 -463v-368h266q10 0 10 -8v-228q0 -10 -10 -10h-1372z" />
    <glyph glyph-name="uni0641" unicode="&#x641;" horiz-adv-x="2202" arabic-form="isolated" 
d="M541 0q-189 0 -298.5 110t-109.5 302q0 77 18 164.5t48 148.5h270q-31 -133 -31 -268q0 -95 53 -153t140 -58h532q-98 119 -98 270q0 229 158 363.5t440 134.5h365v-1014h-1487zM1722 246v522h-53q-140 0 -215.5 -69t-75.5 -199q0 -122 74 -188t213 -66h57zM1620 1190
q-64 0 -101 39.5t-37 107.5q0 69 36.5 108.5t101.5 39.5q62 0 98.5 -39t36.5 -109q0 -68 -37.5 -107.5t-97.5 -39.5z" />
    <glyph glyph-name="uni0641.init" unicode="&#x641;" horiz-adv-x="1321" arabic-form="initial" 
d="M842 246v522h-54q-138 0 -214 -68.5t-76 -199.5q0 -122 73.5 -188t212.5 -66h58zM283 246q-99 117 -99 270q0 229 158 363.5t440 134.5h365v-1014h-1157q-10 0 -10 10v228q0 8 10 8h293zM760 1190q-64 0 -101 39.5t-37 107.5q0 69 36.5 108.5t101.5 39.5q62 0 98.5 -39
t36.5 -109q0 -68 -37.5 -107.5t-97.5 -39.5z" />
    <glyph glyph-name="uni0641.medi" unicode="&#x641;" horiz-adv-x="1393" arabic-form="medial" 
d="M1403 246q10 0 10 -8v-228q0 -10 -10 -10h-1413q-10 0 -10 10v228q0 8 10 8h293q-99 117 -99 270q0 229 158 363.5t440 134.5h365v-768h256zM842 246v522h-54q-138 0 -214 -68.5t-76 -199.5q0 -122 73.5 -188t212.5 -66h58zM760 1190q-64 0 -101 39.5t-37 107.5
q0 69 36.5 108.5t101.5 39.5q62 0 98.5 -39t36.5 -109q0 -68 -37.5 -107.5t-97.5 -39.5z" />
    <glyph glyph-name="uni0641.fina" unicode="&#x641;" horiz-adv-x="2273" arabic-form="final" 
d="M1722 246v522h-53q-140 0 -215.5 -69t-75.5 -199q0 -122 74 -188t213 -66h57zM2284 246q10 0 10 -8v-228q0 -10 -10 -10h-1743q-189 0 -298.5 110t-109.5 302q0 77 18 164.5t48 148.5h270q-31 -133 -31 -268q0 -95 53 -153t140 -58h532q-98 119 -98 270q0 229 158 363.5
t440 134.5h365v-768h256zM1649 1190q-64 0 -101 39.5t-37 107.5q0 69 36.5 108.5t101.5 39.5q62 0 98.5 -39t36.5 -109q0 -68 -37.5 -107.5t-97.5 -39.5z" />
    <glyph glyph-name="veh.isol" unicode="&#x6a4;" horiz-adv-x="2202" arabic-form="isolated" 
d="M541 0q-189 0 -298.5 110t-109.5 302q0 77 18 164.5t48 148.5h270q-31 -133 -31 -268q0 -95 53 -153t140 -58h532q-98 119 -98 270q0 229 158 363.5t440 134.5h365v-1014h-1487zM1722 246v522h-53q-140 0 -215.5 -69t-75.5 -199q0 -122 74 -188t213 -66h57zM1624 1581
q-49 0 -82.5 31t-33.5 94q0 65 33.5 94.5t82.5 29.5q53 0 85 -33t32 -91q0 -56 -31.5 -90.5t-85.5 -34.5zM1450 1251q-63 0 -100 39.5t-37 107.5q0 69 36.5 108.5t100.5 39.5t100 -39.5t36 -108.5q0 -68 -37.5 -107.5t-98.5 -39.5zM1799 1251q-64 0 -101 39.5t-37 107.5
q0 69 36.5 108.5t101.5 39.5q62 0 98.5 -39t36.5 -109q0 -68 -37.5 -107.5t-97.5 -39.5z" />
    <glyph glyph-name="veh.init" unicode="&#x6a4;" horiz-adv-x="1321" arabic-form="initial" 
d="M842 246v522h-54q-138 0 -214 -68.5t-76 -199.5q0 -122 73.5 -188t212.5 -66h58zM283 246q-99 117 -99 270q0 229 158 363.5t440 134.5h365v-1014h-1157q-10 0 -10 10v228q0 8 10 8h293zM753 1581q-49 0 -82.5 31t-33.5 94q0 65 33.5 94.5t82.5 29.5q53 0 85 -33t32 -91
q0 -56 -31.5 -90.5t-85.5 -34.5zM579 1251q-63 0 -100 39.5t-37 107.5q0 69 36.5 108.5t100.5 39.5t100 -39.5t36 -108.5q0 -68 -37.5 -107.5t-98.5 -39.5zM928 1251q-64 0 -101 39.5t-37 107.5q0 69 36.5 108.5t101.5 39.5q62 0 98.5 -39t36.5 -109q0 -68 -37.5 -107.5
t-97.5 -39.5z" />
    <glyph glyph-name="veh.medi" unicode="&#x6a4;" horiz-adv-x="1393" arabic-form="medial" 
d="M1403 246q10 0 10 -8v-228q0 -10 -10 -10h-1413q-10 0 -10 10v228q0 8 10 8h293q-99 117 -99 270q0 229 158 363.5t440 134.5h365v-768h256zM842 246v522h-54q-138 0 -214 -68.5t-76 -199.5q0 -122 73.5 -188t212.5 -66h58zM753 1581q-49 0 -82.5 31t-33.5 94
q0 65 33.5 94.5t82.5 29.5q53 0 85 -33t32 -91q0 -56 -31.5 -90.5t-85.5 -34.5zM579 1251q-63 0 -100 39.5t-37 107.5q0 69 36.5 108.5t100.5 39.5t100 -39.5t36 -108.5q0 -68 -37.5 -107.5t-98.5 -39.5zM928 1251q-64 0 -101 39.5t-37 107.5q0 69 36.5 108.5t101.5 39.5
q62 0 98.5 -39t36.5 -109q0 -68 -37.5 -107.5t-97.5 -39.5z" />
    <glyph glyph-name="veh.fina" unicode="&#x6a4;" horiz-adv-x="2273" arabic-form="final" 
d="M1722 246v522h-53q-140 0 -215.5 -69t-75.5 -199q0 -122 74 -188t213 -66h57zM2284 246q10 0 10 -8v-228q0 -10 -10 -10h-1743q-189 0 -298.5 110t-109.5 302q0 77 18 164.5t48 148.5h270q-31 -133 -31 -268q0 -95 53 -153t140 -58h532q-98 119 -98 270q0 229 158 363.5
t440 134.5h365v-768h256zM1624 1581q-49 0 -82.5 31t-33.5 94q0 65 33.5 94.5t82.5 29.5q53 0 85 -33t32 -91q0 -56 -31.5 -90.5t-85.5 -34.5zM1450 1251q-63 0 -100 39.5t-37 107.5q0 69 36.5 108.5t100.5 39.5t100 -39.5t36 -108.5q0 -68 -37.5 -107.5t-98.5 -39.5z
M1799 1251q-64 0 -101 39.5t-37 107.5q0 69 36.5 108.5t101.5 39.5q62 0 98.5 -39t36.5 -109q0 -68 -37.5 -107.5t-97.5 -39.5z" />
    <glyph glyph-name="uni0642.init" unicode="&#x642;" horiz-adv-x="1321" arabic-form="initial" 
d="M842 246v522h-54q-138 0 -214 -68.5t-76 -199.5q0 -122 73.5 -188t212.5 -66h58zM283 246q-99 117 -99 270q0 229 158 363.5t440 134.5h365v-1014h-1157q-10 0 -10 10v228q0 8 10 8h293zM583 1190q-63 0 -100 39.5t-37 107.5q0 69 36.5 108.5t100.5 39.5q63 0 99 -39
t36 -109t-37 -108.5t-98 -38.5zM931 1190q-63 0 -100 39.5t-37 107.5q0 69 36.5 108.5t100.5 39.5t100 -39.5t36 -108.5q0 -68 -37.5 -107.5t-98.5 -39.5z" />
    <glyph glyph-name="uni0642.medi" unicode="&#x642;" horiz-adv-x="1393" arabic-form="medial" 
d="M1403 246q10 0 10 -8v-228q0 -10 -10 -10h-1413q-10 0 -10 10v228q0 8 10 8h293q-99 117 -99 270q0 229 158 363.5t440 134.5h365v-768h256zM842 246v522h-54q-138 0 -214 -68.5t-76 -199.5q0 -122 73.5 -188t212.5 -66h58zM628 1190q-63 0 -100 39.5t-37 107.5
q0 69 36.5 108.5t100.5 39.5q63 0 99 -39t36 -109t-37 -108.5t-98 -38.5zM976 1190q-63 0 -100 39.5t-37 107.5q0 69 36.5 108.5t100.5 39.5t100 -39.5t36 -108.5q0 -68 -37.5 -107.5t-98.5 -39.5z" />
    <glyph glyph-name="uni0642" unicode="&#x642;" horiz-adv-x="1970" arabic-form="isolated" 
d="M676 -492q-154 0 -278.5 74t-194.5 206.5t-70 293.5q0 116 28 236.5t77 216.5h270q-32 -110 -51 -230.5t-19 -224.5q0 -154 84.5 -240t245.5 -86h346q198 0 287.5 56.5t89.5 179.5v10h-145h-12q-147 0 -260.5 62t-176.5 177t-63 269t69.5 268t204.5 176t326 62h362v-961
q0 -276 -139.5 -410.5t-439.5 -134.5h-541zM1491 246v522h-53q-291 0 -291 -272q0 -125 76 -187.5t211 -62.5h57zM1269 1190q-63 0 -100 39.5t-37 107.5q0 69 36.5 108.5t100.5 39.5q63 0 99 -39t36 -109t-37 -108.5t-98 -38.5zM1617 1190q-63 0 -100 39.5t-37 107.5
q0 69 36.5 108.5t100.5 39.5t100 -39.5t36 -108.5q0 -68 -37.5 -107.5t-98.5 -39.5z" />
    <glyph glyph-name="uni0642.fina" unicode="&#x642;" horiz-adv-x="2042" arabic-form="final" 
d="M2052 246q10 0 10 -8v-228q0 -10 -10 -10h-258q-13 -252 -153 -372t-424 -120h-541q-154 0 -278.5 74t-194.5 206.5t-70 293.5q0 116 28 236.5t77 216.5h270q-32 -110 -51 -230.5t-19 -224.5q0 -154 84.5 -240t245.5 -86h346q198 0 287.5 56.5t89.5 179.5v10h-145h-12
q-147 0 -260.5 62t-176.5 177t-63 269t69.5 268t204.5 176t326 62h362v-768h256zM1491 246v522h-53q-291 0 -291 -272q0 -125 76 -187.5t211 -62.5h57zM1269 1190q-63 0 -100 39.5t-37 107.5q0 69 36.5 108.5t100.5 39.5q63 0 99 -39t36 -109t-37 -108.5t-98 -38.5z
M1617 1190q-63 0 -100 39.5t-37 107.5q0 69 36.5 108.5t100.5 39.5t100 -39.5t36 -108.5q0 -68 -37.5 -107.5t-98.5 -39.5z" />
    <glyph glyph-name="uni0646.init" unicode="&#x646;" horiz-adv-x="725" arabic-form="initial" 
d="M-10 0q-10 0 -10 10v228q0 8 10 8h256v768h305v-1014h-561zM396 1190q-64 0 -101 39.5t-37 107.5q0 69 36.5 108.5t101.5 39.5q62 0 98.5 -39t36.5 -109q0 -68 -37.5 -107.5t-97.5 -39.5z" />
    <glyph glyph-name="uni0646.medi" unicode="&#x646;" horiz-adv-x="807" arabic-form="medial" 
d="M817 246q10 0 10 -8v-228q0 -10 -10 -10h-827q-10 0 -10 10v228q0 8 10 8h256v768h305v-768h266zM396 1190q-64 0 -101 39.5t-37 107.5q0 69 36.5 108.5t101.5 39.5q62 0 98.5 -39t36.5 -109q0 -68 -37.5 -107.5t-97.5 -39.5z" />
    <glyph glyph-name="uni0646" unicode="&#x646;" horiz-adv-x="1559" arabic-form="isolated" 
d="M690 -492q-171 0 -297.5 72t-193 202.5t-66.5 299.5q0 116 28 236.5t77 216.5h270q-32 -110 -51 -230.5t-19 -224.5q0 -149 75 -237.5t198 -88.5h61q158 0 232.5 85.5t74.5 240.5v934h305v-942q0 -564 -604 -564h-90zM758 1015q-64 0 -101 39.5t-37 107.5
q0 69 36.5 108.5t101.5 39.5q62 0 98.5 -39t36.5 -109q0 -68 -37.5 -107.5t-97.5 -39.5z" />
    <glyph glyph-name="uni0646.fina" unicode="&#x646;" horiz-adv-x="1638" arabic-form="final" 
d="M1649 246q10 0 10 -8v-228q0 -10 -10 -10h-267q-37 -492 -602 -492h-90q-171 0 -297.5 72t-193 202.5t-66.5 299.5q0 116 28 236.5t77 216.5h270q-32 -110 -51 -230.5t-19 -224.5q0 -149 75 -237.5t198 -88.5h61q158 0 232.5 85.5t74.5 240.5v934h305v-768h265zM758 1015
q-64 0 -101 39.5t-37 107.5q0 69 36.5 108.5t101.5 39.5q62 0 98.5 -39t36.5 -109q0 -68 -37.5 -107.5t-97.5 -39.5z" />
    <glyph glyph-name="uni06C0" unicode="&#x6c0;" horiz-adv-x="1292" arabic-form="isolated" 
d="M643 -20q-250 0 -380 119t-130 352q0 159 65.5 294.5t182.5 212t268 76.5q139 0 253 -74t185.5 -212.5t71.5 -296.5q0 -243 -130 -357t-386 -114zM641 229q108 0 159.5 57.5t51.5 174.5q0 132 -62.5 229.5t-150.5 97.5t-149.5 -95t-61.5 -232q0 -118 52.5 -175t160.5 -57
zM366 1267l117 19q-40 20 -66 55.5t-26 83.5q0 88 61 137t164 49q101 0 168 -37l-41 -104q-52 26 -111 26q-44 0 -71 -26t-27 -72q0 -32 18 -56t44 -36l36 6q104 16 166 21v-119q-73 -5 -241.5 -25t-190.5 -26v104z" />
    <glyph glyph-name="uni06C0.fina" unicode="&#x6c0;" horiz-adv-x="1341" arabic-form="final" 
d="M1352 246q10 0 10 -8v-228q0 -10 -10 -10h-621q-284 0 -441 132.5t-157 369.5q0 151 72 268t206.5 180.5t319.5 63.5h57v100h308v-868h256zM791 246v522h-54q-140 0 -215.5 -69t-75.5 -199q0 -122 74 -188t213 -66h58zM284 1267l117 19q-40 20 -66 55.5t-26 83.5
q0 88 61 137t164 49q101 0 168 -37l-41 -104q-52 26 -111 26q-44 0 -71 -26t-27 -72q0 -32 18 -56t44 -36l36 6q104 16 166 21v-119q-73 -5 -241.5 -25t-190.5 -26v104z" />
    <glyph glyph-name="uni0624" unicode="&#x624;" horiz-adv-x="1284" arabic-form="isolated" 
d="M569 -492q-139 0 -240.5 21.5t-195.5 77.5l119 223q83 -43 157 -60.5t154 -17.5q116 0 179 63.5t63 174.5v10h-203q-219 0 -337 124t-118 353q0 162 81 284.5t229 187.5t342 65h311v-1020q0 -233 -141.5 -359.5t-399.5 -126.5zM805 246v522h-66q-131 0 -204.5 -74
t-73.5 -209q0 -123 50 -181t153 -58h141zM424 1236l117 19q-40 20 -66 55.5t-26 83.5q0 88 61 137t164 49q101 0 168 -37l-41 -104q-52 26 -111 26q-44 0 -71 -26t-27 -72q0 -32 18 -56t44 -36l36 6q104 16 166 21v-119q-73 -5 -241.5 -25t-190.5 -26v104z" />
    <glyph glyph-name="uni0624.fina" unicode="&#x624;" horiz-adv-x="1356" arabic-form="final" 
d="M1366 246q10 0 10 -8v-228q0 -10 -10 -10h-256q0 -234 -141.5 -363t-399.5 -129q-139 0 -240.5 21.5t-195.5 77.5l119 223q83 -43 157 -60.5t154 -17.5q116 0 179 63.5t63 174.5v10h-203q-219 0 -337 124t-118 353q0 162 81 284.5t229 187.5t342 65h311v-768h256z
M805 246v522h-66q-131 0 -204.5 -74t-73.5 -209q0 -123 50 -181t153 -58h141zM424 1236l117 19q-40 20 -66 55.5t-26 83.5q0 88 61 137t164 49q101 0 168 -37l-41 -104q-52 26 -111 26q-44 0 -71 -26t-27 -72q0 -32 18 -56t44 -36l36 6q104 16 166 21v-119
q-73 -5 -241.5 -25t-190.5 -26v104z" />
    <glyph glyph-name="uni0649.init" unicode="&#x649;" horiz-adv-x="725" arabic-form="initial" 
d="M-10 0q-10 0 -10 10v228q0 8 10 8h256v768h305v-1014h-561z" />
    <glyph glyph-name="uni0649.medi" unicode="&#x649;" horiz-adv-x="807" arabic-form="medial" 
d="M817 246q10 0 10 -8v-228q0 -10 -10 -10h-827q-10 0 -10 10v228q0 8 10 8h256v768h305v-768h266z" />
    <glyph glyph-name="uni064A.init" unicode="&#x64a;" horiz-adv-x="827" arabic-form="initial" 
d="M-10 0q-10 0 -10 10v228q0 8 10 8h358v768h305v-1014h-663zM155 -512q-63 0 -100 39.5t-37 107.5q0 69 36.5 108.5t100.5 39.5q63 0 99 -39t36 -109t-37 -108.5t-98 -38.5zM503 -512q-63 0 -100 39.5t-37 107.5q0 69 36.5 108.5t100.5 39.5t100 -39.5t36 -108.5
q0 -68 -37.5 -107.5t-98.5 -39.5z" />
    <glyph glyph-name="uni064A.medi" unicode="&#x64a;" horiz-adv-x="909" arabic-form="medial" 
d="M-10 0q-10 0 -10 10v228q0 8 10 8h317v768h305v-768h308q10 0 10 -8v-228q0 -10 -10 -10h-930zM264 -512q-63 0 -100 39.5t-37 107.5q0 69 36.5 108.5t100.5 39.5q63 0 99 -39t36 -109t-37 -108.5t-98 -38.5zM612 -512q-63 0 -100 39.5t-37 107.5q0 69 36.5 108.5
t100.5 39.5t100 -39.5t36 -108.5q0 -68 -37.5 -107.5t-98.5 -39.5z" />
    <glyph glyph-name="uni064A" unicode="&#x64a;" horiz-adv-x="1808" arabic-form="isolated" 
d="M545 -492q-117 0 -212 59.5t-147.5 166.5t-52.5 241q0 200 66 396h272q-26 -85 -34.5 -161t-8.5 -190q0 -70 34.5 -132.5t91.5 -98t118 -35.5h354q159 0 232 29t73 94q0 42 -27.5 75.5t-92.5 73.5l-197.5 129.5t-154 133.5t-42.5 127q0 120 108.5 273.5t260.5 248
t291 94.5q48 0 97.5 -18.5t141.5 -77.5l-110 -223q-41 23 -80 39t-82 16q-54 0 -142.5 -57t-146 -125t-57.5 -119q0 -32 46.5 -75.5t135.5 -99.5q83 -52 175 -128t136.5 -145.5t44.5 -135.5q0 -188 -156.5 -281.5t-451.5 -93.5h-483zM704 -998q-63 0 -100 39.5t-37 107.5
q0 69 36.5 108.5t100.5 39.5q63 0 99 -39t36 -109t-37 -108.5t-98 -38.5zM1052 -998q-63 0 -100 39.5t-37 107.5q0 69 36.5 108.5t100.5 39.5t100 -39.5t36 -108.5q0 -68 -37.5 -107.5t-98.5 -39.5z" />
    <glyph glyph-name="uni064A.fina" unicode="&#x64a;" horiz-adv-x="2058" arabic-form="final" 
d="M2058 0q-110 0 -187.5 31t-160.5 119q-22 23 -104 138q-97 135 -152 180.5t-104 45.5q-33 0 -83 -34t-84 -79t-34 -77q0 -42 35.5 -73t112.5 -57q131 -44 193.5 -84t94 -97t31.5 -134q0 -181 -146.5 -276t-441.5 -95h-483q-117 0 -212 59.5t-147.5 166.5t-52.5 241
q0 200 66 396h272q-26 -85 -34.5 -161t-8.5 -190q0 -70 34.5 -132.5t91.5 -98t118 -35.5h354q166 0 226.5 25t60.5 84q0 35 -33.5 59.5t-107.5 44.5q-172 44 -239 117t-67 197q0 107 77.5 224.5t200.5 198t236 80.5q66 0 122 -25.5t108.5 -77t171.5 -221.5
q94 -135 151.5 -174.5t124.5 -39.5h10q11 0 11 -8v-228q0 -10 -11 -10h-10zM704 -998q-63 0 -100 39.5t-37 107.5q0 69 36.5 108.5t100.5 39.5q63 0 99 -39t36 -109t-37 -108.5t-98 -38.5zM1052 -998q-63 0 -100 39.5t-37 107.5q0 69 36.5 108.5t100.5 39.5t100 -39.5
t36 -108.5q0 -68 -37.5 -107.5t-98.5 -39.5z" />
    <glyph glyph-name="uni06CC" unicode="&#x6cc;" horiz-adv-x="1808" arabic-form="isolated" 
d="M545 -492q-117 0 -212 59.5t-147.5 166.5t-52.5 241q0 200 66 396h272q-26 -85 -34.5 -161t-8.5 -190q0 -70 34.5 -132.5t91.5 -98t118 -35.5h354q159 0 232 29t73 94q0 42 -27.5 75.5t-92.5 73.5l-197.5 129.5t-154 133.5t-42.5 127q0 120 108.5 273.5t260.5 248
t291 94.5q48 0 97.5 -18.5t141.5 -77.5l-110 -223q-41 23 -80 39t-82 16q-54 0 -142.5 -57t-146 -125t-57.5 -119q0 -32 46.5 -75.5t135.5 -99.5q83 -52 175 -128t136.5 -145.5t44.5 -135.5q0 -188 -156.5 -281.5t-451.5 -93.5h-483z" />
    <glyph glyph-name="uni06CC.init" unicode="&#x6cc;" horiz-adv-x="827" arabic-form="initial" 
d="M-10 0q-10 0 -10 10v228q0 8 10 8h358v768h305v-1014h-663zM155 -512q-63 0 -100 39.5t-37 107.5q0 69 36.5 108.5t100.5 39.5q63 0 99 -39t36 -109t-37 -108.5t-98 -38.5zM503 -512q-63 0 -100 39.5t-37 107.5q0 69 36.5 108.5t100.5 39.5t100 -39.5t36 -108.5
q0 -68 -37.5 -107.5t-98.5 -39.5z" />
    <glyph glyph-name="uni06CC.medi" unicode="&#x6cc;" horiz-adv-x="909" arabic-form="medial" 
d="M-10 0q-10 0 -10 10v228q0 8 10 8h317v768h305v-768h308q10 0 10 -8v-228q0 -10 -10 -10h-930zM264 -512q-63 0 -100 39.5t-37 107.5q0 69 36.5 108.5t100.5 39.5q63 0 99 -39t36 -109t-37 -108.5t-98 -38.5zM612 -512q-63 0 -100 39.5t-37 107.5q0 69 36.5 108.5
t100.5 39.5t100 -39.5t36 -108.5q0 -68 -37.5 -107.5t-98.5 -39.5z" />
    <glyph glyph-name="uni06CC.fina" unicode="&#x6cc;" horiz-adv-x="2058" arabic-form="final" 
d="M2058 0q-110 0 -187.5 31t-160.5 119q-22 23 -104 138q-97 135 -152 180.5t-104 45.5q-33 0 -83 -34t-84 -79t-34 -77q0 -42 35.5 -73t112.5 -57q131 -44 193.5 -84t94 -97t31.5 -134q0 -181 -146.5 -276t-441.5 -95h-483q-117 0 -212 59.5t-147.5 166.5t-52.5 241
q0 200 66 396h272q-26 -85 -34.5 -161t-8.5 -190q0 -70 34.5 -132.5t91.5 -98t118 -35.5h354q166 0 226.5 25t60.5 84q0 35 -33.5 59.5t-107.5 44.5q-172 44 -239 117t-67 197q0 107 77.5 224.5t200.5 198t236 80.5q66 0 122 -25.5t108.5 -77t171.5 -221.5
q94 -135 151.5 -174.5t124.5 -39.5h10q11 0 11 -8v-228q0 -10 -11 -10h-10z" />
    <glyph glyph-name="uni06D3" unicode="&#x6d3;" horiz-adv-x="1182" arabic-form="isolated" 
d="M524 -492q-206 0 -319 86t-113 242q0 90 37.5 156.5t116 121t258.5 128.5q153 63 209.5 102t79 88t22.5 137v76h305v-82q0 -133 -35 -217.5t-113 -146t-231 -119.5q-172 -67 -233 -99t-86 -62.5t-25 -72.5q0 -92 123 -92h959v-246h-955zM149 599l117 19q-40 20 -66 55.5
t-26 83.5q0 88 61 137t164 49q101 0 168 -37l-41 -104q-52 26 -111 26q-44 0 -71 -26t-27 -72q0 -32 18 -56t44 -36l36 6q104 16 166 21v-119q-73 -5 -241.5 -25t-190.5 -26v104z" />
    <glyph glyph-name="uni06D3.fina" unicode="&#x6d3;" horiz-adv-x="795" arabic-form="final" 
d="M887 246q10 0 10 -8v-228q0 -10 -10 -10h-269q-109 0 -165 -39.5t-56 -105.5q0 -45 33 -73t98 -28h897v-246h-970q-158 0 -260.5 95.5t-102.5 246.5q0 113 68 203.5t187 141.5t259 51h281zM231 515l117 19q-40 20 -66 55.5t-26 83.5q0 88 61 137t164 49q101 0 168 -37
l-41 -104q-52 26 -111 26q-44 0 -71 -26t-27 -72q0 -32 18 -56t44 -36l36 6q104 16 166 21v-119q-73 -5 -241.5 -25t-190.5 -26v104z" />
    <glyph glyph-name="uni0626" unicode="&#x626;" horiz-adv-x="1808" arabic-form="isolated" 
d="M545 -492q-117 0 -212 59.5t-147.5 166.5t-52.5 241q0 200 66 396h272q-26 -85 -34.5 -161t-8.5 -190q0 -70 34.5 -132.5t91.5 -98t118 -35.5h354q159 0 232 29t73 94q0 42 -27.5 75.5t-92.5 73.5l-197.5 129.5t-154 133.5t-42.5 127q0 120 108.5 273.5t260.5 248
t291 94.5q48 0 97.5 -18.5t141.5 -77.5l-110 -223q-41 23 -80 39t-82 16q-54 0 -142.5 -57t-146 -125t-57.5 -119q0 -32 46.5 -75.5t135.5 -99.5q83 -52 175 -128t136.5 -145.5t44.5 -135.5q0 -188 -156.5 -281.5t-451.5 -93.5h-483zM323 712l117 19q-40 20 -66 55.5
t-26 83.5q0 88 61 137t164 49q101 0 168 -37l-41 -104q-52 26 -111 26q-44 0 -71 -26t-27 -72q0 -32 18 -56t44 -36l36 6q104 16 166 21v-119q-73 -5 -241.5 -25t-190.5 -26v104z" />
    <glyph glyph-name="uni0626.init" unicode="&#x626;" horiz-adv-x="725" arabic-form="initial" 
d="M-10 0q-10 0 -10 10v228q0 8 10 8h256v768h305v-1014h-561zM139 1281l117 19q-40 20 -66 55.5t-26 83.5q0 88 61 137t164 49q101 0 168 -37l-41 -104q-52 26 -111 26q-44 0 -71 -26t-27 -72q0 -32 18 -56t44 -36l36 6q104 16 166 21v-119q-73 -5 -241.5 -25t-190.5 -26
v104z" />
    <glyph glyph-name="uni0626.medi" unicode="&#x626;" horiz-adv-x="807" arabic-form="medial" 
d="M817 246q10 0 10 -8v-228q0 -10 -10 -10h-827q-10 0 -10 10v228q0 8 10 8h256v768h305v-768h266zM139 1281l117 19q-40 20 -66 55.5t-26 83.5q0 88 61 137t164 49q101 0 168 -37l-41 -104q-52 26 -111 26q-44 0 -71 -26t-27 -72q0 -32 18 -56t44 -36l36 6q104 16 166 21
v-119q-73 -5 -241.5 -25t-190.5 -26v104z" />
    <glyph glyph-name="uni0626.fina" unicode="&#x626;" horiz-adv-x="2058" arabic-form="final" 
d="M2058 0q-110 0 -187.5 31t-160.5 119q-22 23 -104 138q-97 135 -152 180.5t-104 45.5q-33 0 -83 -34t-84 -79t-34 -77q0 -42 35.5 -73t112.5 -57q131 -44 193.5 -84t94 -97t31.5 -134q0 -181 -146.5 -276t-441.5 -95h-483q-117 0 -212 59.5t-147.5 166.5t-52.5 241
q0 200 66 396h272q-26 -85 -34.5 -161t-8.5 -190q0 -70 34.5 -132.5t91.5 -98t118 -35.5h354q166 0 226.5 25t60.5 84q0 35 -33.5 59.5t-107.5 44.5q-172 44 -239 117t-67 197q0 107 77.5 224.5t200.5 198t236 80.5q66 0 122 -25.5t108.5 -77t171.5 -221.5
q94 -135 151.5 -174.5t124.5 -39.5h10q11 0 11 -8v-228q0 -10 -11 -10h-10zM387 681l117 19q-40 20 -66 55.5t-26 83.5q0 88 61 137t164 49q101 0 168 -37l-41 -104q-52 26 -111 26q-44 0 -71 -26t-27 -72q0 -32 18 -56t44 -36l36 6q104 16 166 21v-119q-73 -5 -241.5 -25
t-190.5 -26v104z" />
    <glyph glyph-name="uni06C2" unicode="&#x6c2;" horiz-adv-x="1292" 
d="M643 -20q-250 0 -380 119t-130 352q0 159 65.5 294.5t182.5 212t268 76.5q139 0 253 -74t185.5 -212.5t71.5 -296.5q0 -243 -130 -357t-386 -114zM641 229q108 0 159.5 57.5t51.5 174.5q0 132 -62.5 229.5t-150.5 97.5t-149.5 -95t-61.5 -232q0 -118 52.5 -175t160.5 -57
zM366 1267l117 19q-40 20 -66 55.5t-26 83.5q0 88 61 137t164 49q101 0 168 -37l-41 -104q-52 26 -111 26q-44 0 -71 -26t-27 -72q0 -32 18 -56t44 -36l36 6q104 16 166 21v-119q-73 -5 -241.5 -25t-190.5 -26v104z" />
    <glyph glyph-name="uni06C1" unicode="&#x6c1;" horiz-adv-x="1292" arabic-form="isolated" 
d="M643 -20q-250 0 -380 119t-130 352q0 159 65.5 294.5t182.5 212t268 76.5q139 0 253 -74t185.5 -212.5t71.5 -296.5q0 -243 -130 -357t-386 -114zM641 229q108 0 159.5 57.5t51.5 174.5q0 132 -62.5 229.5t-150.5 97.5t-149.5 -95t-61.5 -232q0 -118 52.5 -175t160.5 -57
z" />
    <glyph glyph-name="uni06C3" unicode="&#x6c3;" horiz-adv-x="1292" 
d="M643 -20q-250 0 -380 119t-130 352q0 159 65.5 294.5t182.5 212t268 76.5q139 0 253 -74t185.5 -212.5t71.5 -296.5q0 -243 -130 -357t-386 -114zM641 229q108 0 159.5 57.5t51.5 174.5q0 132 -62.5 229.5t-150.5 97.5t-149.5 -95t-61.5 -232q0 -118 52.5 -175t160.5 -57
zM444 1190q-63 0 -100 39.5t-37 107.5q0 69 36.5 108.5t100.5 39.5q63 0 99 -39t36 -109t-37 -108.5t-98 -38.5zM792 1190q-63 0 -100 39.5t-37 107.5q0 69 36.5 108.5t100.5 39.5t100 -39.5t36 -108.5q0 -68 -37.5 -107.5t-98.5 -39.5z" />
    <glyph glyph-name="uni06BE.fina" unicode="&#x6be;" horiz-adv-x="1901" arabic-form="final" 
d="M1911 246q10 0 10 -8v-228q0 -10 -10 -10h-1778v246h180q-42 38 -70 109t-28 177q0 120 64 225.5t172.5 165.5t232.5 60q139 0 244 -58t162 -159.5t57 -228.5v-291h285v379q0 261 -129 399.5t-373 138.5q-153 0 -270.5 -18.5t-227.5 -59.5l-70 234q141 49 277 69.5
t291 20.5q403 0 605 -194.5t202 -563.5v-405h174zM842 246v278q0 106 -37.5 154.5t-118.5 48.5q-69 0 -113.5 -58t-44.5 -149q0 -274 248 -274h66z" />
    <glyph glyph-name="uni06BE.init" unicode="&#x6be;" horiz-adv-x="1819" arabic-form="initial" 
d="M770 246v278q0 106 -37.5 154.5t-118.5 48.5q-70 0 -113.5 -58.5t-43.5 -148.5q0 -274 248 -274h65zM-10 0q-10 0 -10 10v228q0 8 10 8h252q-42 38 -70.5 109t-28.5 177q0 120 64 225.5t172.5 165.5t232.5 60q139 0 244.5 -57.5t162 -160.5t56.5 -228v-291h285v379
q0 260 -128 399t-374 139q-153 0 -269.5 -18.5t-228.5 -59.5l-69 234q141 49 277 69.5t290 20.5q404 0 605.5 -194.5t201.5 -563.5v-651h-1675z" />
    <glyph glyph-name="uni06BE.medi" unicode="&#x6be;" horiz-adv-x="1911" arabic-form="medial" 
d="M1921 246q10 0 10 -8v-228q0 -10 -10 -10h-1931q-10 0 -10 10v228q0 8 10 8h252q-42 38 -70.5 109t-28.5 177q0 120 64 225.5t172.5 165.5t232.5 60q139 0 244.5 -57.5t162 -160.5t56.5 -228v-291h285v379q0 260 -128 399t-374 139q-153 0 -269.5 -18.5t-228.5 -59.5
l-69 234q141 49 277 69.5t290 20.5q404 0 605.5 -194.5t201.5 -563.5v-405h256zM770 246v278q0 106 -37.5 154.5t-118.5 48.5q-70 0 -113.5 -58.5t-43.5 -148.5q0 -274 248 -274h65z" />
    <glyph glyph-name="fathatan_01" unicode="&#xfe70;" arabic-form="isolated" 
d="M-240 1722l480 179v-132l-480 -180v133zM-240 1954l480 178v-131l-480 -180v133z" />
    <glyph glyph-name="dammatan_01" unicode="&#xfe72;" arabic-form="isolated" 
d="M47 1597q-51 0 -91 10t-74 28t-83 61l-90 -76l-76 98l179 158q114 -160 227 -160q25 0 41 4q-62 88 -62 172q0 80 53.5 128t137.5 48q83 0 132.5 -47t49.5 -120q0 -83 -46.5 -152.5t-127 -110.5t-170.5 -41zM190 1761q45 26 61.5 62t16.5 65t-17.5 46.5t-45.5 17.5
q-25 0 -44.5 -17.5t-19.5 -52.5q0 -53 49 -121z" />
    <glyph glyph-name="kasratan_01" unicode="&#xfe74;" arabic-form="isolated" 
d="M-240 -700l480 178v-131l-480 -181v134zM-240 -449l480 179v-131l-480 -181v133z" />
    <glyph glyph-name="fatha_01" unicode="&#xfe76;" arabic-form="isolated" 
d="M-240 1722l480 179v-132l-480 -180v133z" />
    <glyph glyph-name="damma_01" unicode="&#xfe78;" arabic-form="isolated" 
d="M-82 1597q-117 0 -219 74l70 101q86 -56 145 -56q50 0 84 10q-57 87 -57 166q0 80 53.5 128t136.5 48t132.5 -47t49.5 -120q0 -75 -55.5 -147t-145 -114.5t-194.5 -42.5zM106 1767q44 26 63 60t19 65q0 26 -17.5 43t-43.5 17t-46 -17.5t-20 -52.5q0 -49 45 -115z" />
    <glyph glyph-name="kasra_01" unicode="&#xfe7a;" arabic-form="isolated" 
d="M-240 -449l480 179v-131l-480 -181v133z" />
    <glyph glyph-name="shadda_01" unicode="&#xfe7c;" arabic-form="isolated" 
d="M-147 1651q-85 0 -132 52.5t-47 145.5v129h127v-96q0 -56 15 -84.5t57 -28.5q41 0 60.5 20.5t19.5 74.5v166h117v-125q0 -45 15.5 -70t61.5 -25q42 0 58 22t16 91v137h127v-170q0 -94 -48.5 -146t-137.5 -52q-94 0 -144 61q-51 -102 -165 -102z" />
    <glyph glyph-name="sukun_01" unicode="&#xfe7e;" arabic-form="isolated" 
d="M-2 1671q-103 0 -163 58.5t-60 156.5t60 156.5t163 58.5q101 0 165 -58.5t64 -154.5q0 -97 -62.5 -157t-166.5 -60zM-2 1796q40 0 65 24t25 66t-25 66t-65 24t-65 -24t-25 -66t22.5 -66t67.5 -24z" />
    <glyph glyph-name="uni0651064C" unicode="&#xfc5e;" arabic-form="isolated" 
d="M-147 1651q-85 0 -132 52.5t-47 145.5v129h127v-96q0 -56 15 -84.5t57 -28.5q41 0 60.5 20.5t19.5 74.5v166h117v-125q0 -45 15.5 -70t61.5 -25q42 0 58 22t16 91v137h127v-170q0 -94 -48.5 -146t-137.5 -52q-94 0 -144 61q-51 -102 -165 -102zM47 2095q-51 0 -91 10
t-74 28t-83 61l-90 -76l-76 98l179 158q114 -160 227 -160q25 0 41 4q-62 88 -62 172q0 80 53.5 128t137.5 48q83 0 132.5 -47t49.5 -120q0 -83 -46.5 -152.5t-127 -110.5t-170.5 -41zM190 2259q45 26 61.5 62t16.5 65t-17.5 46.5t-45.5 17.5q-25 0 -44.5 -17.5t-19.5 -52.5
q0 -53 49 -121z" />
    <glyph glyph-name="uni0651064D" unicode="&#xfc5f;" arabic-form="isolated" 
d="M-147 1651q-85 0 -132 52.5t-47 145.5v129h127v-96q0 -56 15 -84.5t57 -28.5q41 0 60.5 20.5t19.5 74.5v166h117v-125q0 -45 15.5 -70t61.5 -25q42 0 58 22t16 91v137h127v-170q0 -94 -48.5 -146t-137.5 -52q-94 0 -144 61q-51 -102 -165 -102zM-127 1205l480 178v-131
l-480 -181v134zM-127 1456l480 179v-131l-480 -181v133z" />
    <glyph glyph-name="uni0651064E" unicode="&#xfc60;" arabic-form="isolated" 
d="M-147 1651q-85 0 -132 52.5t-47 145.5v129h127v-96q0 -56 15 -84.5t57 -28.5q41 0 60.5 20.5t19.5 74.5v166h117v-125q0 -45 15.5 -70t61.5 -25q42 0 58 22t16 91v137h127v-170q0 -94 -48.5 -146t-137.5 -52q-94 0 -144 61q-51 -102 -165 -102zM-317 2218l480 179v-132
l-480 -180v133z" />
    <glyph glyph-name="uni0651064F" unicode="&#xfc61;" arabic-form="isolated" 
d="M-147 1651q-85 0 -132 52.5t-47 145.5v129h127v-96q0 -56 15 -84.5t57 -28.5q41 0 60.5 20.5t19.5 74.5v166h117v-125q0 -45 15.5 -70t61.5 -25q42 0 58 22t16 91v137h127v-170q0 -94 -48.5 -146t-137.5 -52q-94 0 -144 61q-51 -102 -165 -102zM-124 2154q-117 0 -219 74
l70 101q86 -56 145 -56q50 0 84 10q-57 87 -57 166q0 80 53.5 128t136.5 48t132.5 -47t49.5 -120q0 -75 -55.5 -147t-145 -114.5t-194.5 -42.5zM64 2324q44 26 63 60t19 65q0 26 -17.5 43t-43.5 17t-46 -17.5t-20 -52.5q0 -49 45 -115z" />
    <glyph glyph-name="uni06510650" unicode="&#xfc62;" arabic-form="isolated" 
d="M-147 1651q-85 0 -132 52.5t-47 145.5v129h127v-96q0 -56 15 -84.5t57 -28.5q41 0 60.5 20.5t19.5 74.5v166h117v-125q0 -45 15.5 -70t61.5 -25q42 0 58 22t16 91v137h127v-170q0 -94 -48.5 -146t-137.5 -52q-94 0 -144 61q-51 -102 -165 -102zM-136 1402l480 179v-131
l-480 -181v133z" />
    <glyph glyph-name="uniFC63" unicode="&#xfc63;" arabic-form="isolated" 
d="M-147 1651q-85 0 -132 52.5t-47 145.5v129h127v-96q0 -56 15 -84.5t57 -28.5q41 0 60.5 20.5t19.5 74.5v166h117v-125q0 -45 15.5 -70t61.5 -25q42 0 58 22t16 91v137h127v-170q0 -94 -48.5 -146t-137.5 -52q-94 0 -144 61q-51 -102 -165 -102zM-59 2572h137v-397h-137
v397z" />
    <glyph glyph-name="uni0672.fina" unicode="&#x672;" horiz-adv-x="756" 
d="M766 246q10 0 10 -8v-228q0 -10 -10 -10h-561v1434h305v-1188h256zM596 1622q-176 -41 -299 -41q-31 0 -110 21l-29 4q-44 0 -98 -47l-55 57q33 46 71.5 76t69.5 30t73 -16q43 -17 62 -18q-40 20 -66 55.5t-26 83.5q0 88 61 137t164 49q101 0 168 -37l-41 -104
q-52 26 -111 26q-44 0 -71 -26t-27 -72q0 -32 18 -56t44 -36q32 3 105.5 15t96.5 18v-119z" />
    <glyph glyph-name="uni0673.fina" unicode="&#x673;" horiz-adv-x="756" 
d="M766 246q10 0 10 -8v-228q0 -10 -10 -10h-561v1556h305v-1310h256zM656 -489q-176 -41 -299 -41q-36 0 -111 20l-29 4q-44 0 -98 -47l-55 57q86 107 141 107q33 0 73 -16q41 -18 62 -19q-40 20 -66 55.5t-26 83.5q0 86 60 136.5t165 50.5q96 0 168 -37l-41 -105
q-49 27 -110 27q-45 0 -72 -27.5t-27 -70.5q0 -32 18 -56t44 -36q25 2 103 13.5t100 18.5v-118z" />
    <glyph glyph-name="uni0675.fina" unicode="&#x675;" horiz-adv-x="756" 
d="M766 246q10 0 10 -8v-228q0 -10 -10 -10h-561v1434h305v-1188h256zM651 1148l117 19q-40 20 -66 55.5t-26 83.5q0 88 61 137t164 49q101 0 168 -37l-41 -104q-52 26 -111 26q-44 0 -71 -26t-27 -72q0 -32 18 -56t44 -36l36 6q104 16 166 21v-119q-73 -5 -241.5 -25
t-190.5 -26v104z" />
    <glyph glyph-name="uni0676.fina" unicode="&#x676;" horiz-adv-x="1356" 
d="M1366 246q10 0 10 -8v-228q0 -10 -10 -10h-256q0 -234 -141.5 -363t-399.5 -129q-139 0 -240.5 21.5t-195.5 77.5l119 223q83 -43 157 -60.5t154 -17.5q116 0 179 63.5t63 174.5v10h-203q-219 0 -337 124t-118 353q0 162 81 284.5t229 187.5t342 65h311v-768h256z
M805 246v522h-66q-131 0 -204.5 -74t-73.5 -209q0 -123 50 -181t153 -58h141zM782 1308l117 19q-40 20 -66 55.5t-26 83.5q0 88 61 137t164 49q101 0 168 -37l-41 -104q-52 26 -111 26q-44 0 -71 -26t-27 -72q0 -32 18 -56t44 -36l36 6q104 16 166 21v-119
q-73 -5 -241.5 -25t-190.5 -26v104z" />
    <glyph glyph-name="uni0677.fina" unicode="&#x677;" horiz-adv-x="1356" 
d="M1366 246q10 0 10 -8v-228q0 -10 -10 -10h-256q0 -234 -141.5 -363t-399.5 -129q-139 0 -240.5 21.5t-195.5 77.5l119 223q83 -43 157 -60.5t154 -17.5q116 0 179 63.5t63 174.5v10h-203q-219 0 -337 124t-118 353q0 162 81 284.5t229 187.5t342 65h311v-768h256z
M805 246v522h-66q-131 0 -204.5 -74t-73.5 -209q0 -123 50 -181t153 -58h141zM782 1308l117 19q-40 20 -66 55.5t-26 83.5q0 88 61 137t164 49q101 0 168 -37l-41 -104q-52 26 -111 26q-44 0 -71 -26t-27 -72q0 -32 18 -56t44 -36l36 6q104 16 166 21v-119
q-73 -5 -241.5 -25t-190.5 -26v104zM207 1119q-117 0 -219 74l70 101q86 -56 145 -56q50 0 84 10q-57 87 -57 166q0 80 53.5 128t136.5 48t132.5 -47t49.5 -120q0 -75 -55.5 -147t-145 -114.5t-194.5 -42.5zM395 1289q44 26 63 60t19 65q0 26 -17.5 43t-43.5 17t-46 -17.5
t-20 -52.5q0 -49 45 -115z" />
    <glyph glyph-name="uni0678.fina" unicode="&#x678;" horiz-adv-x="2058" 
d="M2058 0q-110 0 -187.5 31t-160.5 119q-22 23 -104 138q-97 135 -152 180.5t-104 45.5q-33 0 -83 -34t-84 -79t-34 -77q0 -42 35.5 -73t112.5 -57q131 -44 193.5 -84t94 -97t31.5 -134q0 -181 -146.5 -276t-441.5 -95h-483q-117 0 -212 59.5t-147.5 166.5t-52.5 241
q0 200 66 396h272q-26 -85 -34.5 -161t-8.5 -190q0 -70 34.5 -132.5t91.5 -98t118 -35.5h354q166 0 226.5 25t60.5 84q0 35 -33.5 59.5t-107.5 44.5q-172 44 -239 117t-67 197q0 107 77.5 224.5t200.5 198t236 80.5q66 0 122 -25.5t108.5 -77t171.5 -221.5
q94 -135 151.5 -174.5t124.5 -39.5h10q11 0 11 -8v-228q0 -10 -11 -10h-10zM1044 1021l117 19q-40 20 -66 55.5t-26 83.5q0 88 61 137t164 49q101 0 168 -37l-41 -104q-52 26 -111 26q-44 0 -71 -26t-27 -72q0 -32 18 -56t44 -36l36 6q104 16 166 21v-119q-73 -5 -241.5 -25
t-190.5 -26v104z" />
    <glyph glyph-name="uni067A.init" unicode="&#x67a;" horiz-adv-x="827" arabic-form="initial" 
d="M-10 0q-10 0 -10 10v228q0 8 10 8h358v768h305v-1014h-663zM516 1190q-61 0 -99 38t-38 109q0 72 36.5 110t100.5 38q63 0 99 -39t36 -109t-37 -108.5t-98 -38.5zM516 1571q-61 0 -99 38t-38 109q0 72 36.5 110t100.5 38q63 0 99 -39t36 -109t-37 -108.5t-98 -38.5z" />
    <glyph glyph-name="uni067A.medi" unicode="&#x67a;" horiz-adv-x="909" arabic-form="medial" 
d="M-10 0q-10 0 -10 10v228q0 8 10 8h317v768h305v-768h308q10 0 10 -8v-228q0 -10 -10 -10h-930zM467 1190q-61 0 -99 38t-38 109q0 72 36.5 110t100.5 38q63 0 99 -39t36 -109t-37 -108.5t-98 -38.5zM467 1571q-61 0 -99 38t-38 109q0 72 36.5 110t100.5 38q63 0 99 -39
t36 -109t-37 -108.5t-98 -38.5z" />
    <glyph glyph-name="uni067A.fina" unicode="&#x67a;" horiz-adv-x="1858" arabic-form="final" 
d="M541 0q-189 0 -298.5 110t-109.5 302q0 77 18 164.5t48 148.5h270q-31 -133 -31 -268q0 -95 53 -153t140 -58h665v768h306v-768h266q10 0 10 -8v-228q0 -10 -10 -10h-1327zM893 751q-61 0 -99 38t-38 109q0 72 36.5 110t100.5 38q63 0 99 -39t36 -109t-37 -108.5
t-98 -38.5zM893 1132q-61 0 -99 38t-38 109q0 72 36.5 110t100.5 38q63 0 99 -39t36 -109t-37 -108.5t-98 -38.5z" />
    <glyph glyph-name="uni067B.init" unicode="&#x67b;" horiz-adv-x="725" arabic-form="initial" 
d="M-10 0q-10 0 -10 10v228q0 8 10 8h256v768h305v-1014h-561zM408 -893q-61 0 -99 38t-38 110q0 71 37 109t100 38t99 -39t36 -108q0 -71 -36.5 -109.5t-98.5 -38.5zM408 -512q-61 0 -99 38t-38 109q0 72 36.5 110t100.5 38q63 0 99 -39t36 -109t-37 -108.5t-98 -38.5z" />
    <glyph glyph-name="uni067B.medi" unicode="&#x67b;" horiz-adv-x="807" arabic-form="medial" 
d="M817 246q10 0 10 -8v-228q0 -10 -10 -10h-827q-10 0 -10 10v228q0 8 10 8h256v768h305v-768h266zM393 -893q-61 0 -99 38t-38 110q0 71 37 109t100 38t99 -39t36 -108q0 -71 -36.5 -109.5t-98.5 -38.5zM393 -512q-61 0 -99 38t-38 109q0 72 36.5 110t100.5 38
q63 0 99 -39t36 -109t-37 -108.5t-98 -38.5z" />
    <glyph glyph-name="uni067B.fina" unicode="&#x67b;" horiz-adv-x="1858" arabic-form="final" 
d="M541 0q-189 0 -298.5 110t-109.5 302q0 77 18 164.5t48 148.5h270q-31 -133 -31 -268q0 -95 53 -153t140 -58h665v768h306v-768h266q10 0 10 -8v-228q0 -10 -10 -10h-1327zM922 -893q-61 0 -99 38t-38 110q0 71 37 109t100 38t99 -39t36 -108q0 -71 -36.5 -109.5
t-98.5 -38.5zM922 -512q-61 0 -99 38t-38 109q0 72 36.5 110t100.5 38q63 0 99 -39t36 -109t-37 -108.5t-98 -38.5z" />
    <glyph glyph-name="uni067C.init" unicode="&#x67c;" horiz-adv-x="827" 
d="M-10 0q-10 0 -10 10v228q0 8 10 8h358v768h305v-1014h-663zM336 1190q-63 0 -100 39.5t-37 107.5q0 69 36.5 108.5t100.5 39.5q63 0 99 -39t36 -109t-37 -108.5t-98 -38.5zM684 1190q-63 0 -100 39.5t-37 107.5q0 69 36.5 108.5t100.5 39.5t100 -39.5t36 -108.5
q0 -68 -37.5 -107.5t-98.5 -39.5zM324 -304q-103 0 -163 58.5t-60 156.5t60 156.5t163 58.5q101 0 165 -58.5t64 -154.5q0 -97 -62.5 -157t-166.5 -60zM324 -179q40 0 65 24t25 66t-25 66t-65 24t-65 -24t-25 -66t22.5 -66t67.5 -24z" />
    <glyph glyph-name="uni067C.medi" unicode="&#x67c;" horiz-adv-x="909" 
d="M-10 0q-10 0 -10 10v228q0 8 10 8h317v768h305v-768h308q10 0 10 -8v-228q0 -10 -10 -10h-930zM280 1190q-63 0 -100 39.5t-37 107.5q0 69 36.5 108.5t100.5 39.5q63 0 99 -39t36 -109t-37 -108.5t-98 -38.5zM628 1190q-63 0 -100 39.5t-37 107.5q0 69 36.5 108.5
t100.5 39.5t100 -39.5t36 -108.5q0 -68 -37.5 -107.5t-98.5 -39.5zM457 -304q-103 0 -163 58.5t-60 156.5t60 156.5t163 58.5q101 0 165 -58.5t64 -154.5q0 -97 -62.5 -157t-166.5 -60zM457 -179q40 0 65 24t25 66t-25 66t-65 24t-65 -24t-25 -66t22.5 -66t67.5 -24z" />
    <glyph glyph-name="uni067C.fina" unicode="&#x67c;" horiz-adv-x="1858" 
d="M541 0q-189 0 -298.5 110t-109.5 302q0 77 18 164.5t48 148.5h270q-31 -133 -31 -268q0 -95 53 -153t140 -58h665v768h306v-768h266q10 0 10 -8v-228q0 -10 -10 -10h-1327zM889 -304q-103 0 -163 58.5t-60 156.5t60 156.5t163 58.5q101 0 165 -58.5t64 -154.5
q0 -97 -62.5 -157t-166.5 -60zM889 -179q40 0 65 24t25 66t-25 66t-65 24t-65 -24t-25 -66t22.5 -66t67.5 -24zM673 996q-63 0 -100 39.5t-37 107.5q0 69 36.5 108.5t100.5 39.5q63 0 99 -39t36 -109t-37 -108.5t-98 -38.5zM1021 996q-63 0 -100 39.5t-37 107.5
q0 69 36.5 108.5t100.5 39.5t100 -39.5t36 -108.5q0 -68 -37.5 -107.5t-98.5 -39.5z" />
    <glyph glyph-name="uni067D.init" unicode="&#x67d;" horiz-adv-x="827" 
d="M-10 0q-10 0 -10 10v228q0 8 10 8h358v768h305v-1014h-663zM499 1438q50 0 83.5 -31t33.5 -94q0 -65 -33.5 -95t-83.5 -30q-53 0 -84.5 34t-31.5 91q0 56 31.5 90.5t84.5 34.5zM673 1767q64 0 101 -39t37 -108q0 -68 -36 -107.5t-102 -39.5q-62 0 -98.5 39t-36.5 108
q0 68 37 107.5t98 39.5zM325 1767q64 0 101 -39t37 -108q0 -68 -36 -107.5t-102 -39.5q-62 0 -98.5 39t-36.5 108q0 68 37 107.5t98 39.5z" />
    <glyph glyph-name="uni067D.medi" unicode="&#x67d;" horiz-adv-x="909" 
d="M-10 0q-10 0 -10 10v228q0 8 10 8h317v768h305v-768h308q10 0 10 -8v-228q0 -10 -10 -10h-930zM450 1438q50 0 83.5 -31t33.5 -94q0 -65 -33.5 -95t-83.5 -30q-53 0 -84.5 34t-31.5 91q0 56 31.5 90.5t84.5 34.5zM624 1767q64 0 101 -39t37 -108q0 -68 -36 -107.5
t-102 -39.5q-62 0 -98.5 39t-36.5 108q0 68 37 107.5t98 39.5zM276 1767q64 0 101 -39t37 -108q0 -68 -36 -107.5t-102 -39.5q-62 0 -98.5 39t-36.5 108q0 68 37 107.5t98 39.5z" />
    <glyph glyph-name="uni067D.fina" unicode="&#x67d;" horiz-adv-x="1858" 
d="M541 0q-189 0 -298.5 110t-109.5 302q0 77 18 164.5t48 148.5h270q-31 -133 -31 -268q0 -95 53 -153t140 -58h665v768h306v-768h266q10 0 10 -8v-228q0 -10 -10 -10h-1327zM864 990q50 0 83.5 -31t33.5 -94q0 -65 -33.5 -95t-83.5 -30q-53 0 -84.5 34t-31.5 91
q0 56 31.5 90.5t84.5 34.5zM1038 1319q64 0 101 -39t37 -108q0 -68 -36 -107.5t-102 -39.5q-62 0 -98.5 39t-36.5 108q0 68 37 107.5t98 39.5zM690 1319q64 0 101 -39t37 -108q0 -68 -36 -107.5t-102 -39.5q-62 0 -98.5 39t-36.5 108q0 68 37 107.5t98 39.5z" />
    <glyph glyph-name="uni067F.init" unicode="&#x67f;" horiz-adv-x="827" arabic-form="initial" 
d="M-10 0q-10 0 -10 10v228q0 8 10 8h358v768h305v-1014h-663zM338 1192q-51 0 -87 32.5t-36 100.5q0 69 36 101t87 32q57 0 90 -35.5t33 -97.5q0 -60 -33 -96.5t-90 -36.5zM651 1192q-51 0 -87 32.5t-36 100.5q0 69 36 101t87 32t87 -32t36 -101q0 -68 -36 -100.5
t-87 -32.5zM338 1522q-51 0 -87 32.5t-36 100.5q0 69 36 101t87 32q57 0 90 -35.5t33 -97.5q0 -60 -33 -96.5t-90 -36.5zM651 1522q-51 0 -87 32.5t-36 100.5q0 69 36 101t87 32t87 -32t36 -101q0 -68 -36 -100.5t-87 -32.5z" />
    <glyph glyph-name="uni067F.medi" unicode="&#x67f;" horiz-adv-x="909" arabic-form="medial" 
d="M-10 0q-10 0 -10 10v228q0 8 10 8h317v768h305v-768h308q10 0 10 -8v-228q0 -10 -10 -10h-930zM287 1192q-51 0 -87 32.5t-36 100.5q0 69 36 101t87 32q57 0 90 -35.5t33 -97.5q0 -60 -33 -96.5t-90 -36.5zM600 1192q-51 0 -87 32.5t-36 100.5q0 69 36 101t87 32t87 -32
t36 -101q0 -68 -36 -100.5t-87 -32.5zM287 1522q-51 0 -87 32.5t-36 100.5q0 69 36 101t87 32q57 0 90 -35.5t33 -97.5q0 -60 -33 -96.5t-90 -36.5zM600 1522q-51 0 -87 32.5t-36 100.5q0 69 36 101t87 32t87 -32t36 -101q0 -68 -36 -100.5t-87 -32.5z" />
    <glyph glyph-name="uni067F.fina" unicode="&#x67f;" horiz-adv-x="1858" arabic-form="final" 
d="M541 0q-189 0 -298.5 110t-109.5 302q0 77 18 164.5t48 148.5h270q-31 -133 -31 -268q0 -95 53 -153t140 -58h665v768h306v-768h266q10 0 10 -8v-228q0 -10 -10 -10h-1327zM688 765q-51 0 -87 32.5t-36 100.5q0 69 36 101t87 32q57 0 90 -35.5t33 -97.5q0 -60 -33 -96.5
t-90 -36.5zM1001 765q-51 0 -87 32.5t-36 100.5q0 69 36 101t87 32t87 -32t36 -101q0 -68 -36 -100.5t-87 -32.5zM688 1095q-51 0 -87 32.5t-36 100.5q0 69 36 101t87 32q57 0 90 -35.5t33 -97.5q0 -60 -33 -96.5t-90 -36.5zM1001 1095q-51 0 -87 32.5t-36 100.5
q0 69 36 101t87 32t87 -32t36 -101q0 -68 -36 -100.5t-87 -32.5z" />
    </font>
</defs>
</svg>
